NASCAR 2020 Cup Series Richmond Federated Auto Parts 400 HDTV x264 720

seeders: 16     leechers: 1     updated: 2 days ago

Downloading Seeding from 0 peers
of -
0 b/s / 0 b/s
    NASCAR 2020 Cup Series Richmond Federated Auto Parts 400 HDTV x264 720 ( 3.74 GB )
    Downloaded from.txt0.06 kB
    nascar.txt4.25 kB
    NASCAR 2020 Cup Series Richmond Federated Auto Parts 400 HDTV x264 720.mkv3.74 GB

    NASCAR Cup Series 2020




    Federated Auto Parts 400
    Richmond Raceway
    Saturday, Sept. 12 7:30 PM ET
    Richmond, Virginia- 400 laps / 300 miles












    General
    Complete name                            : NASCAR 2020 Cup Series Richmond Federated Auto Parts 400 HDTV x264 720.mkv
    Format                                   : Matroska
    Format version                           : Version 4
    File size                                : 3.74 GiB
    Duration                                 : 2 h 38 min
    Overall bit rate                         : 3 380 kb/s
    Encoded date                             : UTC 2020-09-13 03:04:47
    Writing application                      : mkvmerge v49.0.0 ('Sick Of Losing Soulmates') 64-bit
    Writing library                          : libebml v1.4.0 + libmatroska v1.6.1
    Encoding Gui                             : Hybrid 2020.08.02.1

    Video
    ID                                       : 1
    Format                                   : AVC
    Format/Info                              : Advanced Video Codec
    Format profile                           : [email protected]
    Format settings                          : CABAC / 4 Ref Frames
    Format settings, CABAC                   : Yes
    Format settings, Reference frames        : 4 frames
    Codec ID                                 : V_MPEG4/ISO/AVC
    Duration                                 : 2 h 38 min
    Bit rate                                 : 2 992 kb/s
    Width                                    : 1 280 pixels
    Height                                   : 720 pixels
    Display aspect ratio                     : 16:9
    Frame rate mode                          : Constant
    Frame rate                               : 59.940 (59940/1000) FPS
    Original frame rate                      : 59.940 (60000/1001) FPS
    Color space                              : YUV
    Chroma subsampling                       : 4:2:0
    Bit depth                                : 8 bits
    Scan type                                : Progressive
    Bits/(Pixel*Frame)                       : 0.054
    Stream size                              : 3.31 GiB (89%)
    Writing library                          : x264 core 161 r3018 db0d417
    Default                                  : Yes
    Forced                                   : Yes
    Color range                              : Limited
    Matrix coefficients                      : BT.709

    Audio
    ID                                       : 2
    Format                                   : AC-3
    Format/Info                              : Audio Coding 3
    Commercial name                          : Dolby Digital
    Codec ID                                 : A_AC3
    Duration                                 : 2 h 38 min
    Bit rate mode                            : Constant
    Bit rate                                 : 384 kb/s
    Channel(s)                               : 6 channels
    Channel layout                           : L R C LFE Ls Rs
    Sampling rate                            : 48.0 kHz
    Frame rate                               : 31.250 FPS (1536 SPF)
    Compression mode                         : Lossy
    Stream size                              : 436 MiB (11%)
    Service kind                             : Complete Main
    Default                                  : Yes
    Forced                                   : No



    SIMILAR

    TORRENT   UPLOADEDSIZESEEDS LEECHS
    NASCAR 2020 Cup Series Alsco Uniforms 500 Charlotte HDTV x264 720 by HackRF 4 months 3.99 GB15 4
    NASCAR 2020 Cup Series Daytona 500 HDTV x264 720 by HackRF 7 months 7.62 GB24 1
    NASCAR 2020 Cup Series Toyota 500 Darlington HDTV x264 720 by HackRF 4 months 4.92 GB23 19
    NASCAR 2020 Cup Series Talladega GEICO 500 HDTV x264 720 by HackRF 3 months 4.71 GB15 1
    NASCAR 2020 Cup Series Pennzoil 400 Las Vegas HDTV x264 720 by HackRF 7 months 4.06 GB22 1
    NASCAR 2020 Cup Series Kentucky Quaker State 400 HDTV x264 720 by HackRF 2 months 3.36 GB24 28
    NASCAR 2020 Cup Series Bristol Bass Pro Shops 500 HDTV x264 720 by HackRF 2 days 3.84 GB23 41

    Torrent Hash: EA0854928577C50FDBB1CBDF3F0D256467E55DB5


    Num Trackers: 4 trackers




    TRACKER'S LIST COMPATIBLE WITH BITTORRENT CLIENT


    TrackerSeedersLeechersCompletedUpdated
    http://bt2.archive.org:6969/announce 0 0 0 2 days
    http://bt1.archive.org:6969/announce 0 0 0 2 days
    udp://tracker.coppersurfer.tk:6969 16 1 0 2 days
    http://tracker1.itzmx.com:8080/announce 1 1 0 2 days

    No comments yet.