NASCAR 2020 Cup Series Talladega GEICO 500 HDTV x264 720

seeders: 15     leechers: 1     updated: 2 weeks ago

Downloading Seeding from 0 peers
of -
0 b/s / 0 b/s
    NASCAR 2020 Cup Series Talladega GEICO 500 HDTV x264 720 ( 4.71 GB )
    Downloaded from.txt0.06 kB
    nascar.txt4.11 kB
    NASCAR 2020 Cup Series Talladega GEICO 500 HDTV x264 720.mkv4.71 GB

    NASCAR Cup Series 2020

    GEICO 500
    Talladega Superspeedway
    Talladega, Alabama - 188 laps / 500 miles
    Sunday  June 21  3:00 pm ET

    **NOTE SEEDBOX IS DOWN**  











    General
    Unique ID                                : NASCAR 2020 Cup Series Talladega GEICO 500  HDTV x264 720.mkv
    Format                                   : Matroska
    Format version                           : Version 4
    File size                                : 4.71 GiB
    Duration                                 : 3 h 8 min
    Overall bit rate                         : 3 571 kb/s
    Encoded date                             : UTC 2020-06-23 01:19:32
    Writing application                      : mkvmerge v43.0.0 ('The Quartermaster') 64-bit
    Writing library                          : libebml v1.3.10 + libmatroska v1.5.2

    Video
    ID                                       : 1
    Format                                   : AVC
    Format/Info                              : Advanced Video Codec
    Format profile                           : [email protected]
    Format settings                          : CABAC / 5 Ref Frames
    Format settings, CABAC                   : Yes
    Format settings, RefFrames               : 5 frames
    Codec ID                                 : V_MPEG4/ISO/AVC
    Duration                                 : 3 h 8 min
    Bit rate                                 : 3 183 kb/s
    Width                                    : 1 280 pixels
    Height                                   : 720 pixels
    Display aspect ratio                     : 16:9
    Frame rate mode                          : Constant
    Frame rate                               : 59.940 (60000/1001) FPS
    Color space                              : YUV
    Chroma subsampling                       : 4:2:0
    Bit depth                                : 8 bits
    Scan type                                : Progressive
    Bits/(Pixel*Frame)                       : 0.058
    Stream size                              : 4.20 GiB (89%)
    Writing library                          : x264 core 152 r2851 ba24899
    Default                                  : Yes
    Forced                                   : No

    Audio
    ID                                       : 2
    Format                                   : AC-3
    Format/Info                              : Audio Coding 3
    Commercial name                          : Dolby Digital
    Codec ID                                 : A_AC3
    Duration                                 : 3 h 8 min
    Bit rate mode                            : Constant
    Bit rate                                 : 384 kb/s
    Channel(s)                               : 6 channels
    Channel layout                           : L R C LFE Ls Rs
    Sampling rate                            : 48.0 kHz
    Frame rate                               : 31.250 FPS (1536 SPF)
    Bit depth                                : 16 bits
    Compression mode                         : Lossy
    Stream size                              : 518 MiB (11%)
    Language                                 : new
    Service kind                             : Complete Main
    Default                                  : Yes
    Forced                                   : No




    SIMILAR

    TORRENT   UPLOADEDSIZESEEDS LEECHS
    NASCAR 2020 Cup Series Alsco Uniforms 500 Charlotte HDTV x264 720 by HackRF 1 month 3.99 GB15 4
    NASCAR 2020 Cup Series Daytona 500 HDTV x264 720 by HackRF 5 months 7.62 GB24 1
    NASCAR 2020 Cup Series Pennzoil 400 Las Vegas HDTV x264 720 by HackRF 4 months 4.06 GB22 1
    NASCAR 2020 Cup Series Toyota 500 Darlington HDTV x264 720 by HackRF 1 month 4.92 GB23 19
    NASCAR 2020 Cup Series Bluegreen Vacations Duel at Daytona HDTV x 264 720 by HackRF 5 months 3.89 GB10 0
    NASCAR 2020 Cup Series Auto Club 400 Fontana HDTV x264 720 by HackRF 4 months 3.37 GB0 0
    NASCAR 2020 Cup Series The Real Heroes 400 Darlington HDTV x264 720 by HackRF 1 month 5.65 GB10 0

    Torrent Hash: 9039065E1BBBFB76B8F118D480EF72050316D20A


    Num Trackers: 7 trackers




    TRACKER'S LIST COMPATIBLE WITH BITTORRENT CLIENT


    TrackerSeedersLeechersCompletedUpdated
    udp://tracker.gbitt.info:80/announce 13 1 0 2 weeks
    udp://tracker.leechers-paradise.org:6969/announce 8 4 0 2 weeks
    udp://tracker.internetwarriors.net:1337/announce 5 0 0 2 weeks
    udp://p4p.arenabg.com:1337/announce 5 0 0 2 weeks
    udp://retracker.lanta-net.ru:2710/announce 5 0 0 2 weeks
    udp://retracker.akado-ural.ru:80/announce 1 0 0 2 weeks
    udp://tracker.coppersurfer.tk:6969/announce 15 1 0 2 weeks