NASCAR 2020 Cup Series Toyota 500 Darlington HDTV x264 720

seeders: 23     leechers: 19     updated: 11 hours ago

Downloading Seeding from 0 peers
of -
0 b/s / 0 b/s
    NASCAR 2020 Cup Series Toyota 500 Darlington HDTV x264 720 ( 4.92 GB )
    Downloaded from.txt0.06 kB
    nascar.txt4.13 kB
    NASCAR 2020 Cup Series Toyota 500 Darlington HDTV x264 720.mkv4.92 GB

    NASCAR Cup Series 2020

    Toyota 500  
    Darlington Raceway
    Wednesday
    May 20  6:00 pm ET














    General
    Complete name                            : NASCAR 2020 Cup Series Toyota 500 Darlington HDTV x264 720.mkv
    Format                                   : Matroska
    Format version                           : Version 4
    File size                                : 4.92 GiB
    Duration                                 : 3 h 4 min
    Overall bit rate                         : 3 813 kb/s
    Encoded date                             : UTC 2020-05-21 03:23:09
    Writing application                      : mkvmerge v43.0.0 ('The Quartermaster') 64-bit
    Writing library                          : libebml v1.3.10 + libmatroska v1.5.2

    Video
    ID                                       : 1
    Format                                   : AVC
    Format/Info                              : Advanced Video Codec
    Format profile                           : [email protected]
    Format settings                          : CABAC / 5 Ref Frames
    Format settings, CABAC                   : Yes
    Format settings, RefFrames               : 5 frames
    Codec ID                                 : V_MPEG4/ISO/AVC
    Duration                                 : 3 h 4 min
    Bit rate                                 : 3 425 kb/s
    Width                                    : 1 280 pixels
    Height                                   : 720 pixels
    Display aspect ratio                     : 16:9
    Frame rate mode                          : Constant
    Frame rate                               : 59.940 (59940/1000) FPS
    Original frame rate                      : 59.940 (60000/1001) FPS
    Color space                              : YUV
    Chroma subsampling                       : 4:2:0
    Bit depth                                : 8 bits
    Scan type                                : Progressive
    Bits/(Pixel*Frame)                       : 0.062
    Stream size                              : 4.42 GiB (90%)
    Writing library                          : x264 core 148 r2744 b97ae06
    Default                                  : Yes
    Forced                                   : No

    Audio
    ID                                       : 2
    Format                                   : AC-3
    Format/Info                              : Audio Coding 3
    Commercial name                          : Dolby Digital
    Codec ID                                 : A_AC3
    Duration                                 : 3 h 4 min
    Bit rate mode                            : Constant
    Bit rate                                 : 384 kb/s
    Channel(s)                               : 6 channels
    Channel layout                           : L R C LFE Ls Rs
    Sampling rate                            : 48.0 kHz
    Frame rate                               : 31.250 FPS (1536 SPF)
    Bit depth                                : 16 bits
    Compression mode                         : Lossy
    Stream size                              : 508 MiB (10%)
    Language                                 : new
    Service kind                             : Complete Main
    Default                                  : Yes
    Forced                                   : No




    SIMILAR

    TORRENT   UPLOADEDSIZESEEDS LEECHS
    NASCAR 2020 Cup Series Daytona 500 HDTV x264 720 by HackRF 3 months 7.62 GB24 1
    NASCAR 2020 Cup Series Pennzoil 400 Las Vegas HDTV x264 720 by HackRF 3 months 4.06 GB22 1
    NASCAR 2020 Cup Series Bluegreen Vacations Duel at Daytona HDTV x 264 720 by HackRF 3 months 3.89 GB10 0
    NASCAR 2020 Cup Series Auto Club 400 Fontana HDTV x264 720 by HackRF 3 months 3.37 GB0 0
    NASCAR 2020 Cup Series The Real Heroes 400 Darlington HDTV x264 720 by HackRF 1 week 5.65 GB10 1
    NASCAR 2020 IRacing E-Invitational Homestead-Miami FS1 HDTV x264 720 by HackRF 2 months 1.98 GB6 1
    NASCAR Cup Series 2020 Busch Clash at Daytona HDTV x264 720 by HackRF 3 months 2.67 GB7 0

    Torrent Hash: AABC724F8BCD8C0A4F772B74327E43B88F62C0FF


    Num Trackers: 4 trackers




    TRACKER'S LIST COMPATIBLE WITH BITTORRENT CLIENT


    TrackerSeedersLeechersCompletedUpdated
    udp://tracker.coppersurfer.tk:6969 23 19 0 11 hours
    udp://tracker.leechers-paradise.org:6969 23 13 0 11 hours
    http://bt2.archive.org:6969/announce 1 0 0 11 hours
    http://bt1.archive.org:6969/announce 1 0 0 11 hours