NASCAR 2020 IRacing E-Invitational Homestead-Miami FS1 HDTV x264 720

seeders: 6     leechers: 1     updated: 2 days ago

Downloading Seeding from 0 peers
of -
0 b/s / 0 b/s
    NASCAR 2020 IRacing E-Invitational Homestead-Miami FS1 HDTV x264 720 ( 1.98 GB )
    Downloaded from.txt0.06 kB
    Iracing Nascar.txt4.14 kB
    NASCAR 2020 IRacing E-Invitational Homestead-Miami FS1 HDTV x264 720.mkv1.98 GB

    NASCAR 2020

    IRacing E-Invitational
    Homestead-Miami, Fl
    March 22, 2020  1:30PM
    FS1










    General
    Complete name                            : NASCAR 2020 IRacing E-Invitational Homestead-Miami FS1 HDTV x264 720.mkv
    Format                                   : Matroska
    Format version                           : Version 4
    File size                                : 1.98 GiB
    Duration                                 : 1 h 32 min
    Overall bit rate                         : 3 053 kb/s
    Encoded date                             : UTC 2020-03-22 20:34:15
    Writing application                      : mkvmerge v43.0.0 ('The Quartermaster') 64-bit
    Writing library                          : libebml v1.3.10 + libmatroska v1.5.2

    Video
    ID                                       : 1
    Format                                   : AVC
    Format/Info                              : Advanced Video Codec
    Format profile                           : [email protected]
    Format settings                          : CABAC / 5 Ref Frames
    Format settings, CABAC                   : Yes
    Format settings, RefFrames               : 5 frames
    Codec ID                                 : V_MPEG4/ISO/AVC
    Duration                                 : 1 h 32 min
    Bit rate                                 : 2 665 kb/s
    Width                                    : 1 280 pixels
    Height                                   : 720 pixels
    Display aspect ratio                     : 16:9
    Frame rate mode                          : Constant
    Frame rate                               : 59.940 (59940/1000) FPS
    Original frame rate                      : 59.940 (60000/1001) FPS
    Color space                              : YUV
    Chroma subsampling                       : 4:2:0
    Bit depth                                : 8 bits
    Scan type                                : Progressive
    Bits/(Pixel*Frame)                       : 0.048
    Stream size                              : 1.73 GiB (87%)
    Writing library                          : x264 core 148 r2744 b97ae06
    Default                                  : Yes
    Forced                                   : No

    Audio
    ID                                       : 2
    Format                                   : AC-3
    Format/Info                              : Audio Coding 3
    Commercial name                          : Dolby Digital
    Codec ID                                 : A_AC3
    Duration                                 : 1 h 32 min
    Bit rate mode                            : Constant
    Bit rate                                 : 384 kb/s
    Channel(s)                               : 6 channels
    Channel layout                           : L R C LFE Ls Rs
    Sampling rate                            : 48.0 kHz
    Frame rate                               : 31.250 FPS (1536 SPF)
    Bit depth                                : 16 bits
    Compression mode                         : Lossy
    Stream size                              : 255 MiB (13%)
    Language                                 : new
    Service kind                             : Complete Main
    Default                                  : Yes
    Forced                                   : No




    SIMILAR

    TORRENT   UPLOADEDSIZESEEDS LEECHS
    NASCAR 2020 Cup Series Daytona 500 HDTV x264 720 by HackRF 1 month 7.62 GB24 1
    NASCAR 2020 Cup Series Pennzoil 400 Las Vegas HDTV x264 720 by HackRF 1 month 4.06 GB22 1
    NASCAR 2020 Cup Series Bluegreen Vacations Duel at Daytona HDTV x 264 720 by HackRF 1 month 3.89 GB10 0
    NASCAR 2020 Cup Series Auto Club 400 Fontana HDTV x264 720 by HackRF 1 month 3.37 GB0 0
    NASCAR Cup Series 2020 Busch Clash at Daytona HDTV x264 720 by HackRF 1 month 2.67 GB7 0
    NASCAR 2019 MECS Monster Energy Nascar All-Star Race Charlotte HDTV x264 720 by HackRF 11 months 3.40 GB9 1
    Big collection of m3u files 8-1-2020 [tested>working] [4allapps] by 4allapps 3 months 1.89 MB22 2

    Torrent Hash: BEE82B69F9785A42DA99FBEC49B936EC95AAC550


    Num Trackers: 5 trackers




    TRACKER'S LIST COMPATIBLE WITH BITTORRENT CLIENT


    TrackerSeedersLeechersCompletedUpdated
    udp://retracker.lanta-net.ru:2710/announce 0 1 0 2 days
    udp://tracker.coppersurfer.tk:6969/announce 2 1 0 2 days
    udp://tracker.leechers-paradise.org:6969/announce 4 0 0 2 days
    udp://tracker.gbitt.info:80/announce 6 0 0 2 days
    http://tracker.gbitt.info:80/announce 6 1 0 2 days