Otherhood.2019.HDRip.XviD.AC3.LLG

seeders: 0     leechers: 0     updated: 1 week ago

Downloading Seeding from 0 peers
of -
0 b/s / 0 b/s

Warning! Use a VPN When Downloading Torrents.


Your IP Address is 3.228.24.192 Location is US.
Hide your IP ADDRESS with a VPN!

Get VPN App Mac Now!


    Otherhood.2019.HDRip.XviD.AC3.LLG ( 1.15 GB )
    SAMPLE.ts36.29 MB
    Otherhood.2019.HDRip.XviD.AC3.LLG.mp41.12 GB

    By the way you can play this film on Mac with Elmedia Player

    quote:




    ******************************Thumbnail:**********************




    ******************************Screenshots:********************

    Screenshot 1

    Screenshot 2

    Screenshot 3

    Screenshot 4

    Screenshot 5

    Screenshot 6

    Screenshot 7

    Screenshot 8

    Screenshot 9

    Screenshot 0


    ***************************************************************

    Otherhood.2019.HDRip.XviD.AC3.LLG.mp4
    Format                                   : MPEG-4
    Format profile                           : Base Media
    Codec ID                                 : isom (isom/iso2/avc1/mp41)
    File size                                : 1.12 GiB
    Duration                                 : 1 h 40 min
    Overall bit rate mode                    : Variable
    Overall bit rate                         : 1 590 kb/s


    Video
    ID                                       : 1
    Format                                   : AVC
    Format/Info                              : Advanced Video Codec
    Format profile                           : [email protected]
    Format settings                          : CABAC / 1 Ref Frames
    Format settings, CABAC                   : Yes
    Format settings, Reference frames        : 1 frame
    Codec ID                                 : avc1
    Codec ID/Info                            : Advanced Video Coding
    Duration                                 : 1 h 40 min
    Bit rate mode                            : Variable
    Bit rate                                 : 1 202 kb/s
    Maximum bit rate                         : 3 600 kb/s
    Width                                    : 704 pixels
    Height                                   : 384 pixels
    Display aspect ratio                     : 1.85:1
    Frame rate mode                          : Constant
    Frame rate                               : 23.976 (23976/1000) FPS
    Color space                              : YUV
    Chroma subsampling                       : 4:2:0
    Bit depth                                : 8 bits
    Scan type                                : Progressive
    Bits/(Pixel*Frame)                       : 0.185
    Stream size                              : 865 MiB (76%)


    Audio
    ID                                       : 2
    Format                                   : AC-3
    Format/Info                              : Audio Coding 3
    Commercial name                          : Dolby Digital
    Codec ID                                 : ac-3
    Duration                                 : 1 h 40 min
    Bit rate mode                            : Constant
    Bit rate                                 : 384 kb/s
    Channel(s)                               : 6 channels
    Channel layout                           : L R C LFE Ls Rs
    Sampling rate                            : 48.0 kHz
    Frame rate                               : 31.250 FPS (1536 SPF)
    Bit depth                                : 16 bits
    Compression mode                         : Lossy
    Stream size                              : 276 MiB (24%)
    Title                                    : Surround
    Language                                 : English
    Service kind                             : Complete Main
    Default                                  : Yes


    ***************************************************************






    SIMILAR

    TORRENT   UPLOADEDSIZESEEDS LEECHS
    Otherhood.2019.HDRip.XviD.AC3-EVO by xxxlavalxxx 2 months 1.39 GB34 3
    Otherhood.2019.HDRip.XviD.AC3-EVO[TGx] by sotnikam 2 months 1.39 GB3 1
    Otherhood.2019.1080p.NF.WEB-DL.DDP5.1.H264-CMRG[TGx] by sotnikam 2 months 4.03 GB22 2
    Otherhood.2019.1080p.NF.WEB-DL.DDP5.1.H264-CMRG[EtHD] by EtHD 2 months 4.03 GB1 0
    Otherhood (2019) 1080p WEBRip x264 - YIFY by YIFY 2 months 1.66 GB171 59
    Otherhood (2019) 720p WEBRip x264 - YIFY by YIFY 2 months 801.97 MB362 84
    Otherhood.2019.1080p.NF.WEBRip.1600MB.DD5.1.x264-GalaxyRG by sotnikam 2 months 1.60 GB6 1

    Did not find anything about this torrent yet...


    Torrent Hash: F2ACB75AC9C935C8EE41B290B76579759F19692D

    No comments yet.