Overdrive 2017 720p WEB-DL DD 5.1 x264 ESub

seeders: 5     leechers: 6     updated: 22 hours ago
Uploaded by MovieFreak1225 , was 2 weeks ago, day 06/10/2017 20:33:40
Downloaded 36 times, 1.11 GB - 1 file , filmes > WebDL


Warning! Use a VPN When Downloading Torrents.


Your IP Address is 54.162.154.91 Location is US.
Hide your IP ADDRESS with a VPN!

Get VPN App Mac Now!


    Overdrive 2017 720p WEB-DL DD 5.1 x264 ESub ( 1.11 GB )
    Overdrive 2017 720p WEB-DL DD 5.1 x264 ESub.mkv1.11 GB

    By the way you can play this film on Mac with Elmedia Player





    General
    Format                                   : Matroska
    Format version                           : Version 4 / Version 2
    File size                                : 1.11 GiB
    Duration                                 : 1 h 33 min
    Overall bit rate                         : 1 705 kb/s

    Video
    ID                                       : 1
    Format                                   : AVC
    Format/Info                              : Advanced Video Codec
    Format profile                           : [email protected]
    Format settings                          : CABAC / 4 Ref Frames
    Format settings, CABAC                   : Yes
    Format settings, RefFrames               : 4 frames
    Codec ID                                 : V_MPEG4/ISO/AVC
    Duration                                 : 1 h 33 min
    Bit rate                                 : 1 500 kb/s
    Width                                    : 1 280 pixels
    Height                                   : 534 pixels
    Display aspect ratio                     : 2.40:1
    Frame rate mode                          : Constant
    Frame rate                               : 23.976 (23976/1000) FPS
    Color space                              : YUV
    Chroma subsampling                       : 4:2:0
    Bit depth                                : 8 bits
    Scan type                                : Progressive
    Bits/(Pixel*Frame)                       : 0.092
    Stream size                              : 968 MiB (85%)
    Writing library                          : x264 core 148 r2643 5c65704
    Language                                 : English
    Default                                  : Yes
    Forced                                   : No

    Audio
    ID                                       : 2
    Format                                   : AC-3
    Format/Info                              : Audio Coding 3
    Format settings, Endianness              : Big
    Codec ID                                 : A_AC3
    Duration                                 : 1 h 33 min
    Bit rate mode                            : Constant
    Bit rate                                 : 256 kb/s
    Channel(s)                               : 6 channels
    Channel positions                        : Front: L C R, Side: L R, LFE
    Sampling rate                            : 48.0 kHz
    Frame rate                               : 31.250 FPS (1536 SPF)
    Bit depth                                : 16 bits
    Compression mode                         : Lossy
    Stream size                              : 171 MiB (15%)
    Service kind                             : Complete Main
    Default                                  : Yes
    Forced                                   : No

    Text
    ID                                       : 3
    Format                                   : UTF-8
    Codec ID                                 : S_TEXT/UTF8
    Codec ID/Info                            : UTF-8 Plain Text
    Duration                                 : 1 h 27 min
    Bit rate                                 : 43 b/s
    Count of elements                        : 906
    Stream size                              : 27.6 KiB (0%)
    Language                                 : English
    Default                                  : Yes
    Forced                                   : No

    Menu
    00:00:00.000                             : en:1
    00:06:34.000                             : en:2
    00:10:12.000                             : en:3
    00:19:20.000                             : en:4
    00:25:36.000                             : en:5
    00:31:24.000                             : en:6
    00:38:23.000                             : en:7
    00:44:54.000                             : en:8
    00:48:29.000                             : en:9
    00:54:28.000                             : en:10
    01:01:34.000                             : en:11
    01:10:04.000                             : en:12
    01:17:27.000                             : en:13
    01:25:26.000                             : en:14
    01:27:33.000                             : en:15












    SIMILAR

    TORRENT   UPLOADEDSIZESEEDS LEECHS
    Overdrive.2017.HDRip.XviD.AC3-EVO 2 weeks 1.40 GB41 24
    Overdrive.2017.1080p.WEB-DL.DD5.1.H264-FGT[EtHD] 2 weeks 3.20 GB19 106
    Overdrive.2017.720p.WEB-DL.X264.AC3-EVO[EtHD] 2 weeks 2.46 GB14 18
    Overdrive.2017.HDRip.XviD.AC3-iFT 1 week 1.54 GB14 7
    Overdrive.2017.1080p.WEB-DL.DD5.1.H264-FGT 2 weeks 3.20 GB1 221 946
    Overdrive.2017.720p.WEB-DL.X264.AC3-EVO 2 weeks 2.46 GB4 7
    Overdrive.2017.HDRip.XviD.AC3-EVO 2 weeks 1.39 GB12 10

    Torrent Hash: A4C7F4FCA2D4549868AFBA93AC2AD48D456C9B45


    Num Trackers: 5 trackers




    TRACKER'S LIST COMPATIBLE WITH BITTORRENT CLIENT


    TrackerSeedersLeechersCompletedUpdated
    udp://tracker.coppersurfer.tk:6969/announce 5 6 0 23 hours
    udp://tracker.pirateparty.gr:6969/announce 5 5 0 23 hours
    udp://tracker.leechers-paradise.org:6969/announce 5 3 0 23 hours
    udp://tracker.zer0day.to:1337/announce 4 2 0 23 hours
    http://5.79.83.193:2710/announce 1 1 0 23 hours

    No comments yet.