Pyewacket (2018) 720p HDRip x264 AAC by Full4movies

seeders: 0     leechers: 0     updated: 23 hours ago
Uploaded by mimranjamil2948 , was 1 week ago, day 12/07/2018 15:48:43
Downloaded 6 times, 649.07 MB - 1 file , filmes > BDRip


Warning! Use a VPN When Downloading Torrents.


Your IP Address is 54.162.128.159 Location is US.
Hide your IP ADDRESS with a VPN!

Get VPN App Mac Now!


    Pyewacket (2018) 720p HDRip x264 AAC by Full4movies ( 649.07 MB )
    Pyewacket (2018) 720p HDRip x264 AAC by Full4movies.mkv649.07 MB

    By the way you can play this film on Mac with Elmedia Player



    General
    Complete name                  : Pyewacket (2018) 720p HDRip x264 AAC by Full4movies.mkv
    Format                         : Matroska
    Format version                 : Version 4 / Version 2
    File size                      : 649 MiB
    Duration                       : 1 h 28 min
    Overall bit rate               : 1 031 kb/s
    Movie name                     : www.Full4movies.co
    Encoded date                   : UTC 2018-07-12 08:49:05
    Writing application            : mkvmerge v8.1.0 ('Psychedelic Postcard') 32bit
    Writing library                : libebml v1.3.1 + libmatroska v1.4.2

    Video
    ID                             : 1
    Format                         : AVC
    Format/Info                    : Advanced Video Codec
    Format profile                 : [email protected]
    Format settings, CABAC         : Yes
    Format settings, RefFrames     : 4 frames
    Codec ID                       : V_MPEG4/ISO/AVC
    Duration                       : 1 h 28 min
    Bit rate                       : 920 kb/s
    Width                          : 1 280 pixels
    Height                         : 536 pixels
    Display aspect ratio           : 2.40:1
    Frame rate mode                : Constant
    Frame rate                     : 23.976 (24000/1001) FPS
    Color space                    : YUV
    Chroma subsampling             : 4:2:0
    Bit depth                      : 8 bits
    Scan type                      : Progressive
    Bits/(Pixel*Frame)             : 0.056
    Stream size                    : 579 MiB (89%)
    Writing library                : x264 core 152 r2851 ba24899
    Default                        : Yes
    Forced                         : No

    Audio
    ID                             : 2
    Format                         : AAC
    Format/Info                    : Advanced Audio Codec
    Format profile                 : LC
    Codec ID                       : A_AAC
    Duration                       : 1 h 28 min
    Bit rate                       : 109 kb/s
    Channel(s)                     : 2 channels
    Channel positions              : Front: L R
    Sampling rate                  : 48.0 kHz
    Frame rate                     : 46.875 FPS (1024 SPF)
    Compression mode               : Lossy
    Delay relative to video        : -21 ms
    Stream size                    : 68.8 MiB (11%)
    Language                       : English
    Default                        : Yes
    Forced                         : No

    Screen Shoots



    SIMILAR

    TORRENT   UPLOADEDSIZESEEDS LEECHS
    Pyewacket.2017.1080p.BluRay.x264-VETO[EtHD] by EtHD 1 week 6.63 GB15 17
    Pyewacket.2017.720p.BluRay.x264-VETO[EtHD] by EtHD 1 week 4.42 GB7 16
    Pyewacket 2017 HDRip.XviD.AC3-EVO by TvTeam 4 months 1.39 GB1 4
    Pyewacket 2017 HDRip.XviD.AC3-EVO[N1C] by juggs99 4 months 1.39 GB30 25
    Pyewacket.2017.HDRip.XviD.AC3-EVO by Supernova 4 months 1.39 GB2 0
    Pyewacket.2017.BRRip.XviD.AC3-EVO by Supernova 1 week 1.27 GB9 2
    Pyewacket 2017 BRRip.XviD.AC3-EVO[EtMovies] by EtHD 1 week 1.27 GB22 8

    Did not find anything about this torrent yet...


    Torrent Hash: 0F0F4AF74227D106FDA77A14976278C09AB17D7B

    No comments yet.