Sherlock Gnomes 2018 1080p BluRay x264 DTS [MW]

seeders: 8     leechers: 6     updated: 2 months ago
Uploaded by MovieFreak10061 , was 2 months ago, day 05/06/2018 09:23:03
Downloaded 46 times, 2.71 GB - 1 file , movies > BDRip


Warning! Use a VPN When Downloading Torrents.


Your IP Address is 54.80.208.105 Location is US.
Hide your IP ADDRESS with a VPN!

Get VPN App Mac Now!


    Sherlock Gnomes 2018 1080p BluRay x264 DTS [MW] ( 2.71 GB )
    Sherlock Gnomes 2018 1080p BluRay x264 DTS [MW].mkv2.71 GB

    By the way you can play this film on Mac with Elmedia Player





    General
    Format                                   : Matroska
    Format version                           : Version 4 / Version 2
    File size                                : 2.71 GiB
    Duration                                 : 1 h 26 min
    Overall bit rate                         : 4 491 kb/s

    Video
    ID                                       : 1
    Format                                   : AVC
    Format/Info                              : Advanced Video Codec
    Format profile                           : [email protected]
    Format settings                          : CABAC / 4 Ref Frames
    Format settings, CABAC                   : Yes
    Format settings, RefFrames               : 4 frames
    Codec ID                                 : V_MPEG4/ISO/AVC
    Duration                                 : 1 h 26 min
    Bit rate                                 : 3 000 kb/s
    Width                                    : 1 920 pixels
    Height                                   : 804 pixels
    Display aspect ratio                     : 2.40:1
    Frame rate mode                          : Constant
    Frame rate                               : 23.976 (24000/1001) FPS
    Color space                              : YUV
    Chroma subsampling                       : 4:2:0
    Bit depth                                : 8 bits
    Scan type                                : Progressive
    Bits/(Pixel*Frame)                       : 0.081
    Stream size                              : 1.79 GiB (66%)
    Writing library                          : x264 core 155 r2893 b00bcaf
    Default                                  : Yes
    Forced                                   : No

    Audio
    ID                                       : 2
    Format                                   : DTS
    Format/Info                              : Digital Theater Systems
    Codec ID                                 : A_DTS
    Duration                                 : 1 h 26 min
    Bit rate mode                            : Constant
    Bit rate                                 : 1 509 kb/s
    Channel(s)                               : 6 channels
    Channel positions                        : Front: L C R, Side: L R, LFE
    Sampling rate                            : 48.0 kHz
    Frame rate                               : 93.750 FPS (512 SPF)
    Bit depth                                : 24 bits
    Compression mode                         : Lossy
    Stream size                              : 932 MiB (34%)
    Language                                 : English
    Default                                  : Yes
    Forced                                   : No

    Text #1
    ID                                       : 3
    Format                                   : VobSub
    Muxing mode                              : zlib
    Codec ID                                 : S_VOBSUB
    Codec ID/Info                            : Picture based subtitle format used on DVDs
    Duration                                 : 1 h 24 min
    Bit rate                                 : 6 612 b/s
    Count of elements                        : 1128
    Stream size                              : 4.02 MiB (0%)
    Language                                 : English
    Default                                  : Yes
    Forced                                   : No

    Text #2
    ID                                       : 4
    Format                                   : VobSub
    Muxing mode                              : zlib
    Codec ID                                 : S_VOBSUB
    Codec ID/Info                            : Picture based subtitle format used on DVDs
    Duration                                 : 1 h 24 min
    Bit rate                                 : 7 742 b/s
    Count of elements                        : 1415
    Stream size                              : 4.71 MiB (0%)
    Language                                 : English
    Default                                  : No
    Forced                                   : No

    Menu
    00:00:00.000                             : en:00:00:00.000
    00:05:36.127                             : en:00:05:36.127
    00:10:50.650                             : en:00:10:50.650
    00:16:40.166                             : en:00:16:40.166
    00:24:05.944                             : en:00:24:05.944
    00:29:44.074                             : en:00:29:44.074
    00:35:39.512                             : en:00:35:39.512
    00:40:52.909                             : en:00:40:52.909
    00:45:41.530                             : en:00:45:41.530
    00:52:31.982                             : en:00:52:31.982
    00:58:29.756                             : en:00:58:29.756
    01:04:58.520                             : en:01:04:58.520
    01:10:40.069                             : en:01:10:40.069
    01:16:03.058                             : en:01:16:03.058
    01:17:55.212                             : en:01:17:55.212






    https://pichub.site/image/M6dFt
    https://pichub.site/image/M6Vd4
    https://pichub.site/image/M6cup
    https://pichub.site/image/M6k3y
    https://pichub.site/image/M6yab
    https://pichub.site/image/M6C80





    SIMILAR

    TORRENT   UPLOADEDSIZESEEDS LEECHS
    Sherlock.Gnomes.2018.BDRip.x264-GECKOS[EtMovies] by EtHD 2 months 596.13 MB14 6
    Sherlock.Gnomes.2018.DVDRip.XviD.AC3-EVO by xxxlavalxxx 2 months 1.20 GB151 45
    Sherlock.Gnomes.2018.720p.BluRay.x264-GECKOS[EtHD] by EtHD 2 months 2.70 GB10 12
    Sherlock.Gnomes.BRRip.AC3.X264-CMRG by TvTeam 2 months 1.26 GB10 4
    Sherlock.Gnomes.2018.1080p.BluRay.x264-GECKOS[EtHD] by EtHD 2 months 4.45 GB98 112
    Sherlock.Gnomes.2018.BRRip.XviD.AC3-EVO[EtMovies] by EtHD 2 months 1.17 GB10 8
    Sherlock.Gnomes.2018.720p.BluRay.DTS.x264-iFT by Supernova 1 month 4.59 GB2 11

    Torrent Hash: AE9E851A6434D7F3268BAAA5B7DFD81ACE4067CA


    Num Trackers: 4 trackers




    TRACKER'S LIST COMPATIBLE WITH BITTORRENT CLIENT


    TrackerSeedersLeechersCompletedUpdated
    http://191.96.249.23:6969/announce 8 6 0 2 months
    http://public.popcorn-tracker.org:6969/announce 8 6 0 2 months
    udp://thetracker.org:80/announce 1 0 0 2 months
    http://bt.xxx-tracker.com:2710/announce 1 0 0 2 months

    No comments yet.