Sherlock Gnomes 2018 720p BRRip x264 ESub [MW]

seeders: 29     leechers: 13     updated: 4 months ago

Downloading Seeding from 0 peers
of -
0 b/s / 0 b/s

Warning! Use a VPN When Downloading Torrents.


Your IP Address is 54.224.56.126 Location is US.
Hide your IP ADDRESS with a VPN!

Get VPN App Mac Now!


    Sherlock Gnomes 2018 720p BRRip x264 ESub [MW] ( 795.09 MB )
    Sherlock Gnomes 2018 720p BRRip x264 ESub [MW].mkv795.09 MB

    By the way you can play this film on Mac with Elmedia Player






    General
    Format                                   : Matroska
    Format version                           : Version 4 / Version 2
    File size                                : 795 MiB
    Duration                                 : 1 h 26 min
    Overall bit rate                         : 1 288 kb/s

    Video
    ID                                       : 1
    Format                                   : AVC
    Format/Info                              : Advanced Video Codec
    Format profile                           : [email protected]
    Format settings                          : CABAC / 4 Ref Frames
    Format settings, CABAC                   : Yes
    Format settings, RefFrames               : 4 frames
    Codec ID                                 : V_MPEG4/ISO/AVC
    Duration                                 : 1 h 26 min
    Bit rate                                 : 1 200 kb/s
    Width                                    : 1 280 pixels
    Height                                   : 536 pixels
    Display aspect ratio                     : 2.40:1
    Frame rate mode                          : Constant
    Frame rate                               : 23.976 (24000/1001) FPS
    Color space                              : YUV
    Chroma subsampling                       : 4:2:0
    Bit depth                                : 8 bits
    Scan type                                : Progressive
    Bits/(Pixel*Frame)                       : 0.073
    Stream size                              : 707 MiB (89%)
    Writing library                          : x264 core 155 r2893 b00bcaf
    Default                                  : Yes
    Forced                                   : No

    Audio
    ID                                       : 2
    Format                                   : AAC
    Format/Info                              : Advanced Audio Codec
    Format profile                           : HE-AAC / LC
    Format settings                          : Explicit
    Codec ID                                 : A_AAC-2
    Duration                                 : 1 h 26 min
    Bit rate                                 : 127 kb/s
    Channel(s)                               : 2 channels
    Channel positions                        : Front: L R
    Sampling rate                            : 48.0 kHz / 24.0 kHz
    Frame rate                               : 23.438 FPS (1024 SPF)
    Compression mode                         : Lossy
    Stream size                              : 78.2 MiB (10%)
    Language                                 : English
    Default                                  : Yes
    Forced                                   : No

    Text #1
    ID                                       : 3
    Format                                   : VobSub
    Muxing mode                              : zlib
    Codec ID                                 : S_VOBSUB
    Codec ID/Info                            : Picture based subtitle format used on DVDs
    Duration                                 : 1 h 24 min
    Bit rate                                 : 6 612 b/s
    Count of elements                        : 1128
    Stream size                              : 4.02 MiB (1%)
    Language                                 : English
    Default                                  : Yes
    Forced                                   : No

    Text #2
    ID                                       : 4
    Format                                   : VobSub
    Muxing mode                              : zlib
    Codec ID                                 : S_VOBSUB
    Codec ID/Info                            : Picture based subtitle format used on DVDs
    Duration                                 : 1 h 24 min
    Bit rate                                 : 7 742 b/s
    Count of elements                        : 1415
    Stream size                              : 4.71 MiB (1%)
    Language                                 : English
    Default                                  : No
    Forced                                   : No

    Menu
    00:00:00.000                             : en:00:00:00.000
    00:05:36.127                             : en:00:05:36.127
    00:10:50.650                             : en:00:10:50.650
    00:16:40.208                             : en:00:16:40.166
    00:24:05.945                             : en:00:24:05.944
    00:29:44.074                             : en:00:29:44.074
    00:35:39.554                             : en:00:35:39.512
    00:40:52.909                             : en:00:40:52.909
    00:45:41.530                             : en:00:45:41.530
    00:52:31.982                             : en:00:52:31.982
    00:58:29.756                             : en:00:58:29.756
    01:04:58.520                             : en:01:04:58.520
    01:10:40.069                             : en:01:10:40.069
    01:16:03.100                             : en:01:16:03.058
    01:17:55.212                             : en:01:17:55.212





    https://pichub.site/image/MltHv
    https://pichub.site/image/MlAg9
    https://pichub.site/image/MlBnu
    https://pichub.site/image/MlgYR
    https://pichub.site/image/MlGjY
    https://pichub.site/image/Mlmts





    SIMILAR

    TORRENT   UPLOADEDSIZESEEDS LEECHS
    Sherlock.Gnomes.2018.BDRip.x264-GECKOS[EtMovies] by EtHD 5 months 596.13 MB14 6
    Sherlock.Gnomes.2018.DVDRip.XviD.AC3-EVO by xxxlavalxxx 4 months 1.20 GB151 45
    Sherlock.Gnomes.2018.720p.BluRay.x264-GECKOS[EtHD] by EtHD 5 months 2.70 GB10 12
    Sherlock.Gnomes.BRRip.AC3.X264-CMRG by TvTeam 5 months 1.26 GB10 4
    Sherlock.Gnomes.2018.1080p.BluRay.x264-GECKOS[EtHD] by EtHD 5 months 4.45 GB98 112
    Sherlock.Gnomes.2018.BRRip.XviD.AC3-EVO[EtMovies] by EtHD 5 months 1.17 GB10 8
    Sherlock.Gnomes.2018.720p.BluRay.DTS.x264-iFT by Supernova 4 months 4.59 GB2 11

    Torrent Hash: 280EC0C7E0EDA07C5B491589D22E217ADA6C236F


    Num Trackers: 9 trackers




    TRACKER'S LIST COMPATIBLE WITH BITTORRENT CLIENT


    TrackerSeedersLeechersCompletedUpdated
    udp://tracker.opentrackr.org:1337 29 13 0 4 months
    udp://tracker.leechers-paradise.org:6969 19 9 0 4 months
    udp://tracker.coppersurfer.tk:6969 15 9 0 4 months
    http://mgtracker.org:2710/announce 4 2 0 4 months
    http://tracker.mg64.net:6881/announce 3 4 0 4 months
    http://open.acgtracker.com:1096/announce 1 2 0 4 months
    http://tracker1.itzmx.com:8080/announce 1 0 0 4 months
    http://announce.xxx-tracker.com:2710/announce 1 0 0 4 months
    http://retracker.spb.ru/announce 0 0 0 4 months

    No comments yet.