Sherlock Gnomes 2018 DVDRip x264 AAC [MW]

seeders: 5     leechers: 3     updated: 4 months ago

Downloading Seeding from 0 peers
of -
0 b/s / 0 b/s

Warning! Use a VPN When Downloading Torrents.


Your IP Address is 54.92.160.119 Location is US.
Hide your IP ADDRESS with a VPN!

Get VPN App Mac Now!


    Sherlock Gnomes 2018 DVDRip x264 AAC [MW] ( 664.53 MB )
    Sherlock Gnomes 2018 DVDRip x264 AAC [MW].mkv664.53 MB

    By the way you can play this film on Mac with Elmedia Player






    General
    Format                                   : Matroska
    Format version                           : Version 4 / Version 2
    File size                                : 665 MiB
    Duration                                 : 1 h 26 min
    Overall bit rate                         : 1 076 kb/s

    Video
    ID                                       : 1
    Format                                   : AVC
    Format/Info                              : Advanced Video Codec
    Format profile                           : [email protected]
    Format settings                          : CABAC / 4 Ref Frames
    Format settings, CABAC                   : Yes
    Format settings, RefFrames               : 4 frames
    Codec ID                                 : V_MPEG4/ISO/AVC
    Duration                                 : 1 h 26 min
    Bit rate                                 : 946 kb/s
    Nominal bit rate                         : 1 000 kb/s
    Width                                    : 720 pixels
    Height                                   : 304 pixels
    Display aspect ratio                     : 2.35:1
    Frame rate mode                          : Constant
    Frame rate                               : 23.976 (24000/1001) FPS
    Color space                              : YUV
    Chroma subsampling                       : 4:2:0
    Bit depth                                : 8 bits
    Scan type                                : Progressive
    Bits/(Pixel*Frame)                       : 0.180
    Stream size                              : 584 MiB (88%)
    Writing library                          : x264 core 155 r2893 b00bcaf
    Default                                  : Yes
    Forced                                   : No

    Audio
    ID                                       : 2
    Format                                   : AAC
    Format/Info                              : Advanced Audio Codec
    Format profile                           : LC
    Codec ID                                 : A_AAC-2
    Duration                                 : 1 h 26 min
    Bit rate                                 : 128 kb/s
    Channel(s)                               : 2 channels
    Channel positions                        : Front: L R
    Sampling rate                            : 48.0 kHz
    Frame rate                               : 46.875 FPS (1024 SPF)
    Compression mode                         : Lossy
    Stream size                              : 79.0 MiB (12%)
    Language                                 : English
    Default                                  : Yes
    Forced                                   : No





    https://pichub.site/image/M2RqD
    https://pichub.site/image/M2VEX
    https://pichub.site/image/M2E0g
    https://pichub.site/image/M2dFI
    https://pichub.site/image/M2k3J
    https://pichub.site/image/M2cu8




    SIMILAR

    TORRENT   UPLOADEDSIZESEEDS LEECHS
    Sherlock.Gnomes.2018.BDRip.x264-GECKOS[EtMovies] by EtHD 5 months 596.13 MB14 6
    Sherlock.Gnomes.2018.DVDRip.XviD.AC3-EVO by xxxlavalxxx 4 months 1.20 GB151 45
    Sherlock.Gnomes.2018.720p.BluRay.x264-GECKOS[EtHD] by EtHD 5 months 2.70 GB10 12
    Sherlock.Gnomes.BRRip.AC3.X264-CMRG by TvTeam 5 months 1.26 GB10 4
    Sherlock.Gnomes.2018.1080p.BluRay.x264-GECKOS[EtHD] by EtHD 5 months 4.45 GB98 112
    Sherlock.Gnomes.2018.BRRip.XviD.AC3-EVO[EtMovies] by EtHD 5 months 1.17 GB10 8
    Sherlock.Gnomes.2018.720p.BluRay.DTS.x264-iFT by Supernova 4 months 4.59 GB2 11

    Torrent Hash: B1825ADD798C628F6C5AD72FA37DB62C900C549F


    Num Trackers: 4 trackers




    TRACKER'S LIST COMPATIBLE WITH BITTORRENT CLIENT


    TrackerSeedersLeechersCompletedUpdated
    http://public.popcorn-tracker.org:6969/announce 5 3 0 4 months
    http://191.96.249.23:6969/announce 4 4 0 4 months
    http://bt.xxx-tracker.com:2710/announce 1 0 0 4 months
    udp://thetracker.org:80/announce 1 0 0 4 months

    No comments yet.