Sing 2016 READNFO CAM XviD AC3 ACAB

seeders: 1 771     leechers: 512     atualizado: 1 mês atrás
Enviado por xxxlavalxxx16595 , há 2 meses atrás, dia 30/12/2016 14:40:10
Baixado 264 vezes, com 1.43 GB - 3 arquivos , em filmes > CAM

Anúncio (remover)
Loading...


    Sing 2016 READNFO CAM XviD AC3 ACAB ( 1.43 GB )
    Sing 2016 READNFO CAM XviD AC3 ACAB sample.avi11.30 MB
    Sing 2016 READNFO CAM XviD AC3 ACAB.avi1.42 GB
    Torrent Downloaded From ExtraTorrent.cc.txt0.33 kB

    https://extraimage.net/image/21Mr

    http://www.imdb.com/title/tt3470600/
    READNFO Reason
    For Some Reason When Syncing Video And Audio Its Duplicated Frames When This Happens It Only Lasts A Second Doesnt Spoil The Movie (Hopefully Not Anyways) Maybe I Proper Encoder Could Sync Properly But I Dont Pretend That Im Great Far From It. So For Now Enjoy ...
    P.s. Theres More Stuff In The Pipeline >>>
    Source Video - MVGEE [Thanks]
    Source Audio - Thanks Bro :bow:
    Format                  : AVI
    Format/Info               : Audio Video Interleave
    File size                : 1.42 GiB
    Duration                 : 1 h 41 min
    Overall bit rate             : 2 001 kb/s
    Writing library             : VirtualDub build 30091/release
    Video
    ID                    : 0
    Format                  : MPEG-4 Visual
    Format profile              : Advanced [email protected]/*  */
    Format settings, BVOP          : 2
    Format settings, QPel          : No
    Format settings, GMC           : No warppoints
    Format settings, Matrix         : Default (H.263)
    Muxing mode               : Packed bitstream
    Codec ID                 : XVID
    Codec ID/Hint              : XviD
    Duration                 : 1 h 41 min
    Bit rate                 : 1 800 kb/s
    Width                  : 720 pixels
    Height                  : 384 pixels
    Display aspect ratio           : 1.85:1
    Frame rate                : 25.000 FPS
    Color space               : YUV
    Chroma subsampling            : 4:2:0
    Bit depth                : 8 bits
    Scan type                : Progressive
    Compression mode             : Lossy
    Bits/(Pixel*Frame)            : 0.260
    Stream size               : 1.28 GiB (90%)
    Writing library             : XviD 67
    Audio
    ID                    : 1
    Format                  : AC-3
    Format/Info               : Audio Coding 3
    Mode extension              : CM (complete main)
    Format settings, Endianness       : Big
    Codec ID                 : 2000
    Duration                 : 1 h 41 min
    Bit rate mode              : Constant
    Bit rate                 : 192 kb/s
    Sampling rate              : 48.0 kHz
    Frame rate                : 31.250 FPS (1536 spf)
    Compression mode             : Lossy
    Stream size               : 139 MiB (10%)
    Alignment                : Aligned on interleaves
    Interleave, duration           : 40 ms (1.00 video frame)
    Interleave, preload duration       : 512 ms

    https://extraimage.net/image/21Mo
    https://extraimage.net/image/21Mk
    https://extraimage.net/image/21Mt
    https://extraimage.net/image/21Mx



    SIMILARES

    TORRENT   ENVIADOTAMANHOSEEDS LEECHS
    Sing 2016 NEW HD-TS x264-CPG 1 mês 1.55 GB3 917 1 852
    Sing Street (2016) 720p BrRip x264 - YIFY 8 meses 773.23 MB0 0
    Sing Street (2016) 1080p BrRip x264 - YIFY 8 meses 1.60 GB0 0
    Sparrows Can't Sing (1963) 720p BrRip x264 - YIFY 1 ano 751.64 MB226 111
    Ed Sheeran - x [2014] [Deluxe Edition] [iTunes] [M4A-256]-V3nom [GLT] 2 anos 133.84 MB177 21
    Pentatonix - A Pentatonix Christmas (2016) [MP3~320Kbps] 4 meses 100.75 MB217 28
    Matthew West - Unto Us A Christmas Collection.2016.[320kbps] 4 meses 92.45 MB16 0

    Torrent Hash: D6669F7F8FC32C67C661493287C20BDAB72C4E3E


    Num Trackers: 6 trackers




    LISTA DE TRACKERS PARA CLIENTE BITTORRENT


    TrackerSeedersLeechersCompletoAtualizado
    udp://tracker.coppersurfer.tk:6969/announce 1 771 512 0 1 mês
    udp://tracker.leechers-paradise.org:6969/announce 1 178 371 0 1 mês
    udp://tracker.zer0day.to:1337/announce 994 343 0 1 mês
    udp://tracker.sktorrent.net:6969/announce 17 7 0 1 mês
    http://tracker.mgtracker.org:2710/announce 14 6 0 1 mês
    udp://bt.xxx-tracker.com:2710/announce 10 10 0 1 mês

    Nenhum Comentário Ainda








Anúncio (remover)