Sing 2016 READNFO CAM XviD AC3 ACAB

seeders: 1 771     leechers: 512     updated: 9 months ago
Uploaded by xxxlavalxxx36455 , was 9 months ago, day 30/12/2016 14:40:10
Downloaded 303 times, 1.43 GB - 3 files , filmes > CAM

    Sing 2016 READNFO CAM XviD AC3 ACAB ( 1.43 GB )
    Sing 2016 READNFO CAM XviD AC3 ACAB sample.avi11.30 MB
    Sing 2016 READNFO CAM XviD AC3 ACAB.avi1.42 GB
    Torrent Downloaded From ExtraTorrent.cc.txt0.33 kB

    By the way you can play this film on Mac with Elmedia Player

    https://extraimage.net/image/21Mr
    http://www.imdb.com/title/tt3470600/
    READNFO Reason
    For Some Reason When Syncing Video And Audio Its Duplicated Frames When This Happens It Only Lasts A Second Doesnt Spoil The Movie (Hopefully Not Anyways) Maybe I Proper Encoder Could Sync Properly But I Dont Pretend That Im Great Far From It. So For Now Enjoy ...
    P.s. Theres More Stuff In The Pipeline >>>
    Source Video - MVGEE [Thanks]
    Source Audio - Thanks Bro :bow:
    Format                  : AVI
    Format/Info               : Audio Video Interleave
    File size                : 1.42 GiB
    Duration                 : 1 h 41 min
    Overall bit rate             : 2 001 kb/s
    Writing library             : VirtualDub build 30091/release
    Video
    ID                    : 0
    Format                  : MPEG-4 Visual
    Format profile              : Advanced [email protected]/*  */
    Format settings, BVOP          : 2
    Format settings, QPel          : No
    Format settings, GMC           : No warppoints
    Format settings, Matrix         : Default (H.263)
    Muxing mode               : Packed bitstream
    Codec ID                 : XVID
    Codec ID/Hint              : XviD
    Duration                 : 1 h 41 min
    Bit rate                 : 1 800 kb/s
    Width                  : 720 pixels
    Height                  : 384 pixels
    Display aspect ratio           : 1.85:1
    Frame rate                : 25.000 FPS
    Color space               : YUV
    Chroma subsampling            : 4:2:0
    Bit depth                : 8 bits
    Scan type                : Progressive
    Compression mode             : Lossy
    Bits/(Pixel*Frame)            : 0.260
    Stream size               : 1.28 GiB (90%)
    Writing library             : XviD 67
    Audio
    ID                    : 1
    Format                  : AC-3
    Format/Info               : Audio Coding 3
    Mode extension              : CM (complete main)
    Format settings, Endianness       : Big
    Codec ID                 : 2000
    Duration                 : 1 h 41 min
    Bit rate mode              : Constant
    Bit rate                 : 192 kb/s
    Sampling rate              : 48.0 kHz
    Frame rate                : 31.250 FPS (1536 spf)
    Compression mode             : Lossy
    Stream size               : 139 MiB (10%)
    Alignment                : Aligned on interleaves
    Interleave, duration           : 40 ms (1.00 video frame)
    Interleave, preload duration       : 512 ms
    https://extraimage.net/image/21Mo
    https://extraimage.net/image/21Mk
    https://extraimage.net/image/21Mt
    https://extraimage.net/image/21Mx



    SIMILAR

    TORRENT   UPLOADEDSIZESEEDS LEECHS
    Sing.2016.HDRip.XViD-ETRG 7 months 709.00 MB3 753 1 155
    Sing.2016.720p.WEB-DL.H264.AC3-EVO[EtHD] 7 months 3.36 GB239 81
    Sing 2016 NEW HD-TS x264-CPG 8 months 1.55 GB3 917 1 852
    Sing.2016.DANISH.1080p.BluRay.x264-CONDITION[EtHD] 6 months 4.37 GB30 8
    Sing.2016.1080p.WEB-DL.H264.AC3-EVO[EtHD] 7 months 4.21 GB217 50
    Sing 2016 BluRay 720p DTS AC3 x264-ETRG 5 months 3.56 GB64 37
    Sing.2016.BRRip.XviD.AC3-EVO 7 months 1.41 GB11 4

    Torrent Hash: D6669F7F8FC32C67C661493287C20BDAB72C4E3E


    Num Trackers: 6 trackers




    TRACKER'S LIST COMPATIBLE WITH BITTORRENT CLIENT


    TrackerSeedersLeechersCompletedUpdated
    udp://tracker.coppersurfer.tk:6969/announce 1 771 512 0 9 months
    udp://tracker.leechers-paradise.org:6969/announce 1 178 371 0 9 months
    udp://tracker.zer0day.to:1337/announce 994 343 0 9 months
    udp://tracker.sktorrent.net:6969/announce 17 7 0 9 months
    http://tracker.mgtracker.org:2710/announce 14 6 0 9 months
    udp://bt.xxx-tracker.com:2710/announce 10 10 0 9 months

    No comments yet.