Spider-Man.Far.From.Home (2019).1080p.BDRip.Original.Hindi. Audio.X264.LLG

seeders: 0     leechers: 0     updated: 1 week ago

Downloading Seeding from 0 peers
of -
0 b/s / 0 b/s

Warning! Use a VPN When Downloading Torrents.


Your IP Address is 3.228.24.192 Location is US.
Hide your IP ADDRESS with a VPN!

Get VPN App Mac Now!


    Spider-Man.Far.From.Home (2019).1080p.BDRip.Original.Hindi. Audio.X264.LLG ( 3.16 GB )
    SAMPLE.mp441.24 MB
    Spider-Man.Far.From.Home (2019).1080p.BDRip.Original.Hindi. Audio.X264.LLG.mp43.12 GB

    By the way you can play this film on Mac with Elmedia Player

    quote:




    ******************************Thumbnail:**********************




    ******************************Screenshots:********************

    Screenshot 1

    Screenshot 2

    Screenshot 3

    Screenshot 4

    Screenshot 5

    Screenshot 6

    Screenshot 7

    Screenshot 8

    Screenshot 9

    Screenshot 0


    ***************************************************************

    Spider-Man.Far.From.Home (2019).1080p.BDRip.Original.Hindi. Audio.X264.LLG.mp4
    Format                                   : MPEG-4
    Format profile                           : Base Media
    Codec ID                                 : isom (isom/iso2/avc1/mp41)
    File size                                : 3.12 GiB
    Duration                                 : 2 h 9 min
    Overall bit rate mode                    : Variable
    Overall bit rate                         : 3 453 kb/s

    Video
    ID                                       : 1
    Format                                   : AVC
    Format/Info                              : Advanced Video Codec
    Format profile                           : [email protected]
    Format settings                          : CABAC / 1 Ref Frames
    Format settings, CABAC                   : Yes
    Format settings, Reference frames        : 1 frame
    Codec ID                                 : avc1
    Codec ID/Info                            : Advanced Video Coding
    Duration                                 : 2 h 9 min
    Bit rate mode                            : Variable
    Bit rate                                 : 2 938 kb/s
    Maximum bit rate                         : 9 000 kb/s
    Width                                    : 1 920 pixels
    Height                                   : 800 pixels
    Display aspect ratio                     : 2.40:1
    Frame rate mode                          : Constant
    Frame rate                               : 23.976 (23976/1000) FPS
    Color space                              : YUV
    Chroma subsampling                       : 4:2:0
    Bit depth                                : 8 bits
    Scan type                                : Progressive
    Bits/(Pixel*Frame)                       : 0.080
    Stream size                              : 2.65 GiB (85%)


    Audio
    ID                                       : 2
    Format                                   : AC-3
    Format/Info                              : Audio Coding 3
    Commercial name                          : Dolby Digital
    Codec ID                                 : ac-3
    Duration                                 : 2 h 9 min
    Bit rate mode                            : Constant
    Bit rate                                 : 512 kb/s
    Channel(s)                               : 6 channels
    Channel layout                           : L R C LFE Ls Rs
    Sampling rate                            : 48.0 kHz
    Frame rate                               : 31.250 FPS (1536 SPF)
    Bit depth                                : 16 bits
    Compression mode                         : Lossy
    Stream size                              : 474 MiB (15%)
    Language                                 : Hindi
    Service kind                             : Complete Main
    Default                                  : Yes
    Alternate group                          : 1





    ***************************************************************






    SIMILAR

    TORRENT   UPLOADEDSIZESEEDS LEECHS
    Marvels Spider-Man 2017 Season 1 Complete [UPDATED] 720p WEB-DL x264 [i_c] by ice_cracked 1 year 4.53 GB35 26
    Marvels Spider-Man 2017 Season 2 Complete 720p WEB x264 [i_c] by ice_cracked 4 months 2.17 GB2 1
    Spider-Man-Homecoming.2017.Bluray.1080p.DTS-HD.x264-Grym by vonRicht 2 years 16.75 GB159 71
    Spider-Man.Into the Spider-Verse.2019.BRRip.XviD.AC3-EVO by xxxlavalxxx 7 months 1.34 GB40 8
    Spider-Man.Into the Spider-Verse.2019.HDRip.XviD.AC3-EVO by xxxlavalxxx 8 months 1.39 GB1 695 298
    Spider-Man Into the Spider Verse 2018.MULTi.UHD.2160p.BluRay.x26 by SaM 7 months 13.46 GB19 23
    Spider-Man: Into the Spider-Verse (2018) 720p BrRip x264 - YIFY by YIFY 8 months 995.38 MB8 042 3 448

    Did not find anything about this torrent yet...


    Torrent Hash: D0AF7A598F68B312608B3890B33F1F771B1FA56A

    No comments yet.