Spider-Man.Far.from.Home.2019.1080p.BluRay.x264.With Sample.LLG

seeders: 0     leechers: 0     updated: 1 week ago

Downloading Seeding from 0 peers
of -
0 b/s / 0 b/s

Warning! Use a VPN When Downloading Torrents.


Your IP Address is 3.228.24.192 Location is US.
Hide your IP ADDRESS with a VPN!

Get VPN App Mac Now!


    Spider-Man.Far.from.Home.2019.1080p.BluRay.x264.With Sample.LLG ( 4.45 GB )
    Sample 2.ts77.59 MB
    Spider-Man.Far.from.Home.2019.1080p.BluRay.x264.With Sample.LLG.mp44.37 GB

    By the way you can play this film on Mac with Elmedia Player

    quote:




    ******************************Thumbnail:**********************




    ******************************Screenshots:********************

    Screenshot 1

    Screenshot 2

    Screenshot 3

    Screenshot 4

    Screenshot 5

    Screenshot 6

    Screenshot 7

    Screenshot 8

    Screenshot 9

    Screenshot 10


    ***************************************************************
    General
    Spider-Man.Far.from.Home.2019.1080p.BluRay.x264.With Sample.LLG.mp4
    Format                                   : MPEG-4
    Format profile                           : Base Media
    Codec ID                                 : isom (isom/iso2/avc1/mp41)
    File size                                : 4.37 GiB
    Duration                                 : 2 h 9 min
    Overall bit rate mode                    : Variable
    Overall bit rate                         : 4 836 kb/s

    Video
    ID                                       : 1
    Format                                   : AVC
    Format/Info                              : Advanced Video Codec
    Format profile                           : [email protected]
    Format settings                          : CABAC / 1 Ref Frames
    Format settings, CABAC                   : Yes
    Format settings, Reference frames        : 1 frame
    Codec ID                                 : avc1
    Codec ID/Info                            : Advanced Video Coding
    Duration                                 : 2 h 9 min
    Bit rate mode                            : Variable
    Bit rate                                 : 3 432 kb/s
    Maximum bit rate                         : 10.5 Mb/s
    Width                                    : 1 920 pixels
    Height                                   : 808 pixels
    Display aspect ratio                     : 2.40:1
    Frame rate mode                          : Constant
    Frame rate                               : 23.976 (23976/1000) FPS
    Color space                              : YUV
    Chroma subsampling                       : 4:2:0
    Bit depth                                : 8 bits
    Scan type                                : Progressive
    Bits/(Pixel*Frame)                       : 0.092
    Stream size                              : 3.10 GiB (71%)

    Audio
    ID                                       : 2
    Format                                   : DTS
    Format/Info                              : Digital Theater Systems
    Codec ID                                 : mp4a-A9
    Duration                                 : 2 h 9 min
    Bit rate mode                            : Constant
    Bit rate                                 : 1 401 kb/s
    Channel(s)                               : 2 channels
    Channel layout                           : L R
    Sampling rate                            : 48.0 kHz
    Frame rate                               : 93.750 FPS (512 SPF)
    Bit depth                                : 16 bits
    Compression mode                         : Lossy
    Stream size                              : 1.27 GiB (29%)
    Language                                 : English
    Default                                  : Yes

    Menu #1
    ID                                       : 3
    Codec ID                                 : text
    Duration                                 : 2 h 9 min


    ***************************************************************






    SIMILAR

    TORRENT   UPLOADEDSIZESEEDS LEECHS
    Marvels Spider-Man 2017 Season 1 Complete [UPDATED] 720p WEB-DL x264 [i_c] by ice_cracked 1 year 4.53 GB35 26
    Marvels Spider-Man 2017 Season 2 Complete 720p WEB x264 [i_c] by ice_cracked 4 months 2.17 GB2 1
    Spider-Man-Homecoming.2017.Bluray.1080p.DTS-HD.x264-Grym by vonRicht 2 years 16.75 GB159 71
    Spider-Man.Into the Spider-Verse.2019.BRRip.XviD.AC3-EVO by xxxlavalxxx 7 months 1.34 GB40 8
    Spider-Man.Into the Spider-Verse.2019.HDRip.XviD.AC3-EVO by xxxlavalxxx 8 months 1.39 GB1 695 298
    Spider-Man Into the Spider Verse 2018.MULTi.UHD.2160p.BluRay.x26 by SaM 7 months 13.46 GB19 23
    Spider-Man: Into the Spider-Verse (2018) 720p BrRip x264 - YIFY by YIFY 8 months 995.38 MB8 042 3 448

    Did not find anything about this torrent yet...


    Torrent Hash: DA67B126BB12A76EA72E8D3F5E65B75972C5C824

    No comments yet.