Super Troopers 2 2018 1080p BluRay x264 DTS [MW]

seeders: 21     leechers: 14     updated: 2 days ago
Uploaded by MovieFreak8986 , was 2 weeks ago, day 06/07/2018 09:27:48
Downloaded 17 times, 2.77 GB - 1 file , filmes > BDRip


Warning! Use a VPN When Downloading Torrents.


Your IP Address is 54.162.128.159 Location is US.
Hide your IP ADDRESS with a VPN!

Get VPN App Mac Now!


    Super Troopers 2 2018 1080p BluRay x264 DTS [MW] ( 2.77 GB )
    Super Troopers 2 2018 1080p BluRay x264 DTS [MW].mkv2.77 GB

    By the way you can play this film on Mac with Elmedia Player





    General
    Format                                   : Matroska
    Format version                           : Version 4 / Version 2
    File size                                : 2.77 GiB
    Duration                                 : 1 h 39 min
    Overall bit rate                         : 3 991 kb/s

    Video
    ID                                       : 1
    Format                                   : AVC
    Format/Info                              : Advanced Video Codec
    Format profile                           : [email protected]
    Format settings                          : CABAC / 5 Ref Frames
    Format settings, CABAC                   : Yes
    Format settings, RefFrames               : 5 frames
    Codec ID                                 : V_MPEG4/ISO/AVC
    Duration                                 : 1 h 39 min
    Bit rate                                 : 2 500 kb/s
    Width                                    : 1 920 pixels
    Height                                   : 1 036 pixels
    Display aspect ratio                     : 1.85:1
    Frame rate mode                          : Constant
    Frame rate                               : 23.976 (24000/1001) FPS
    Color space                              : YUV
    Chroma subsampling                       : 4:2:0
    Bit depth                                : 8 bits
    Scan type                                : Progressive
    Bits/(Pixel*Frame)                       : 0.052
    Stream size                              : 1.72 GiB (62%)
    Writing library                          : x264 core 155 r2901 7d0ff22
    Default                                  : Yes
    Forced                                   : No

    Audio
    ID                                       : 2
    Format                                   : DTS
    Format/Info                              : Digital Theater Systems
    Codec ID                                 : A_DTS
    Duration                                 : 1 h 39 min
    Bit rate mode                            : Constant
    Bit rate                                 : 1 509 kb/s
    Channel(s)                               : 6 channels
    Channel positions                        : Front: L C R, Side: L R, LFE
    Sampling rate                            : 48.0 kHz
    Frame rate                               : 93.750 FPS (512 SPF)
    Bit depth                                : 24 bits
    Compression mode                         : Lossy
    Stream size                              : 1.05 GiB (38%)
    Language                                 : English
    Default                                  : Yes
    Forced                                   : No


    https://pichub.site/image/YQkgs
    https://pichub.site/image/YQwnB
    https://pichub.site/image/YQht6
    https://pichub.site/image/YQCYY
    https://pichub.site/image/YQi2t




    SIMILAR

    TORRENT   UPLOADEDSIZESEEDS LEECHS
    Super Troopers 720p BRRIP X264 AC3 Duology -DiVERSiTY by TvTeam 5 days 4.81 GB6 5
    Super.Troopers.2.2018.720p.BluRay.x264-x0r by Supernova 1 day 2.17 GB24 19
    Super.Troopers.2.2018.BDRip.x264-DRONES[EtMovies] by EtHD 2 weeks 895.51 MB8 11
    Super.Troopers.2001.720p.BluRay.x264-x0r by Supernova 2 months 2.42 GB16 8
    Super.Troopers.2.2018.720p.BluRay.x264-DRONES[EtHD] by EtHD 2 weeks 4.43 GB13 11
    Super.Troopers.2.2018.1080p.BluRay.x264-DRONES[EtHD] by EtHD 2 weeks 7.76 GB76 36
    Super.Troopers.2.2018.BRRip.XviD.AC3-EVO[EtMovies] by EtHD 2 weeks 1.38 GB41 12

    Torrent Hash: C7B789DAF9927FC3E5A9CDA41915BDA7F9B7DFA4


    Num Trackers: 10 trackers




    TRACKER'S LIST COMPATIBLE WITH BITTORRENT CLIENT


    TrackerSeedersLeechersCompletedUpdated
    udp://tracker.opentrackr.org:1337 21 14 0 2 days
    udp://tracker.leechers-paradise.org:6969 16 6 0 2 days
    udp://tracker.coppersurfer.tk:6969 14 18 0 2 days
    http://tracker.mg64.net:6881/announce 4 4 0 2 days
    http://mgtracker.org:2710/announce 2 3 0 2 days
    http://announce.xxx-tracker.com:2710/announce 1 0 0 2 days
    http://retracker.spb.ru/announce 1 0 0 2 days
    http://open.acgtracker.com:1096/announce 1 0 0 2 days
    http://tracker1.itzmx.com:8080/announce 0 2 0 2 days
    udp://thetracker.org:80/announce 0 1 0 1 week

    No comments yet.