Super Troopers 2 (2018) 720p HDRip x264 AAC by Full4movies

seeders: 6     leechers: 2     updated: 2 months ago
Uploaded by mimranjamil3693 , was 2 months ago, day 03/07/2018 10:34:52
Downloaded 57 times, 809.61 MB - 1 file , movies > BDRip


Warning! Use a VPN When Downloading Torrents.


Your IP Address is 54.166.203.17 Location is US.
Hide your IP ADDRESS with a VPN!

Get VPN App Mac Now!


    Super Troopers 2 (2018) 720p HDRip x264 AAC by Full4movies ( 809.61 MB )
    Super Troopers 2 (2018) 720p HDRip x264 AAC by Full4movies.mkv809.61 MB

    By the way you can play this film on Mac with Elmedia Player



    General
    Complete name                  : Super Troopers 2 (2018) 720p HDRip x264 AAC by Full4movies.mkv
    Format                         : Matroska
    Format version                 : Version 4 / Version 2
    File size                      : 810 MiB
    Duration                       : 1 h 40 min
    Overall bit rate               : 1 131 kb/s
    Movie name                     : www.Full4movies.co
    Encoded date                   : UTC 2018-07-03 10:10:17
    Writing application            : mkvmerge v8.1.0 ('Psychedelic Postcard') 32bit
    Writing library                : libebml v1.3.1 + libmatroska v1.4.2

    Video
    ID                             : 1
    Format                         : AVC
    Format/Info                    : Advanced Video Codec
    Format profile                 : [email protected]
    Format settings, CABAC         : Yes
    Format settings, RefFrames     : 4 frames
    Codec ID                       : V_MPEG4/ISO/AVC
    Duration                       : 1 h 40 min
    Bit rate                       : 1 077 kb/s
    Width                          : 1 280 pixels
    Height                         : 528 pixels
    Display aspect ratio           : 2.40:1
    Frame rate mode                : Variable
    Frame rate                     : 23.976 FPS
    Color space                    : YUV
    Chroma subsampling             : 4:2:0
    Bit depth                      : 8 bits
    Scan type                      : Progressive
    Bits/(Pixel*Frame)             : 0.066
    Stream size                    : 762 MiB (94%)
    Writing library                : x264 core 112
    Language                       : English
    Default                        : Yes
    Forced                         : No
    Color range                    : Limited
    Color primaries                : BT.709
    Transfer characteristics       : BT.709
    Matrix coefficients            : BT.709

    Audio
    ID                             : 2
    Format                         : AAC
    Format/Info                    : Advanced Audio Codec
    Format profile                 : LC
    Codec ID                       : A_AAC
    Duration                       : 1 h 39 min
    Bit rate                       : 64.2 kb/s
    Channel(s)                     : 2 channels
    Channel positions              : Front: L R
    Sampling rate                  : 48.0 kHz
    Frame rate                     : 46.875 FPS (1024 SPF)
    Compression mode               : Lossy
    Stream size                    : 45.7 MiB (6%)
    Language                       : English
    Default                        : Yes
    Forced                         : No

    Screen Shoots



    SIMILAR

    TORRENT   UPLOADEDSIZESEEDS LEECHS
    Super Troopers 720p BRRIP X264 AC3 Duology -DiVERSiTY by TvTeam 2 months 4.81 GB2 0
    Super.Troopers.2.2018.720p.BluRay.x264-x0r by Supernova 2 months 2.17 GB11 9
    Super.Troopers.2.2018.BDRip.x264-DRONES[EtMovies] by EtHD 2 months 895.51 MB8 11
    Super.Troopers.2001.720p.BluRay.x264-x0r by Supernova 4 months 2.42 GB16 8
    Super.Troopers.2.2018.720p.BluRay.x264-DRONES[EtHD] by EtHD 2 months 4.43 GB13 11
    Super.Troopers.2.2018.1080p.BluRay.x264-DRONES[EtHD] by EtHD 2 months 7.76 GB76 36
    Super.Troopers.2.2018.BRRip.XviD.AC3-EVO[EtMovies] by EtHD 2 months 1.38 GB41 12

    Torrent Hash: 137C153DB8726E48BD61290141D02505E23CD2AA


    Num Trackers: 1 trackers




    TRACKER'S LIST COMPATIBLE WITH BITTORRENT CLIENT


    TrackerSeedersLeechersCompletedUpdated
    udp://thetracker.org:80/announce 6 2 0 2 months

    No comments yet.