Take Point.2019.BDRip.XviD.AC3.LLG

seeders: 0     leechers: 0     updated: 1 week ago

Downloading Seeding from 0 peers
of -
0 b/s / 0 b/s

Warning! Use a VPN When Downloading Torrents.


Your IP Address is 3.228.24.192 Location is US.
Hide your IP ADDRESS with a VPN!

Get VPN App Mac Now!


    Take Point.2019.BDRip.XviD.AC3.LLG ( 1.15 GB )
    Sample.ts23.15 MB
    Take Point.2019.BDRip.XviD.AC3.LLG.mp41.12 GB

    By the way you can play this film on Mac with Elmedia Player

    quote:




    ******************************Thumbnail:**********************




    ******************************Screenshots:********************

    Screenshot 1

    Screenshot 2

    Screenshot 3

    Screenshot 4

    Screenshot 5

    Screenshot 6

    Screenshot 7

    Screenshot 8

    Screenshot 9

    Screenshot 10


    ***************************************************************
    General
    Take Point.2019.BDRip.XviD.AC3.LLG.mp4
    Format                                   : MPEG-4
    Format profile                           : Base Media
    Codec ID                                 : isom (isom/iso2/avc1/mp41)
    File size                                : 1.12 GiB
    Duration                                 : 2 h 5 min
    Overall bit rate mode                    : Variable
    Overall bit rate                         : 1 286 kb/s
    Movie name                               : Take Point
    Performer                                : Byung-woo Kim
    Genre                                    : Action & Adventure

    Video
    ID                                       : 1
    Format                                   : AVC
    Format/Info                              : Advanced Video Codec
    Format profile                           : [email protected]
    Format settings                          : CABAC / 1 Ref Frames
    Format settings, CABAC                   : Yes
    Format settings, Reference frames        : 1 frame
    Codec ID                                 : avc1
    Codec ID/Info                            : Advanced Video Coding
    Duration                                 : 2 h 5 min
    Bit rate mode                            : Variable
    Bit rate                                 : 898 kb/s
    Maximum bit rate                         : 2 700 kb/s
    Width                                    : 720 pixels
    Height                                   : 384 pixels
    Display aspect ratio                     : 1.85:1
    Frame rate mode                          : Constant
    Frame rate                               : 23.976 (23976/1000) FPS
    Color space                              : YUV
    Chroma subsampling                       : 4:2:0
    Bit depth                                : 8 bits
    Scan type                                : Progressive
    Bits/(Pixel*Frame)                       : 0.136
    Stream size                              : 804 MiB (70%)

    Audio
    ID                                       : 2
    Format                                   : AC-3
    Format/Info                              : Audio Coding 3
    Commercial name                          : Dolby Digital
    Codec ID                                 : ac-3
    Duration                                 : 2 h 5 min
    Bit rate mode                            : Constant
    Bit rate                                 : 384 kb/s
    Channel(s)                               : 2 channels
    Channel layout                           : L R
    Sampling rate                            : 48.0 kHz
    Frame rate                               : 31.250 FPS (1536 SPF)
    Bit depth                                : 16 bits
    Compression mode                         : Lossy
    Stream size                              : 344 MiB (30%)
    Title                                    : Stereo
    Language                                 : English
    Service kind                             : Complete Main
    Default                                  : Yes

    Menu #1
    ID                                       : 3
    Codec ID                                 : text
    Duration                                 : 2 h 5 min
    Language                                 : English

    ***************************************************************






    SIMILAR

    TORRENT   UPLOADEDSIZESEEDS LEECHS
    Oneohtrix Point Never - Age Of (Japanese Edition) (2018) by kajalsus 1 year 107.21 MB7 1
    Take Point.2019.BDRip.XviD.AC3-EVO by xxxlavalxxx 1 month 1.38 GB53 6
    Take Point.2019.BDRip.XviD.AC3-EVO[TGx] by sotnikam 1 month 1.38 GB7 0
    Take Point.2019.BDRip.XviD.AC3-EVO[EtMovies] by EtHD 1 month 1.38 GB4 1
    Trading.Point.2019.HDRip.XviD.AC3-EVO by xxxlavalxxx 8 months 1.26 GB79 13
    Hollow.Point.2019.HDRip.XviD.AC3-EVO by xxxlavalxxx 3 months 1.29 GB68 3
    Trading.Point.2019.BRRip.XviD.AC3-EVO by xxxlavalxxx 5 months 1.31 GB31 1

    Did not find anything about this torrent yet...


    Torrent Hash: 6FF1F9D9F1387EC9D744F5DEC35C29A2FCB1B6A4

    No comments yet.