The Equalizer 2.2018.NEW.HDTS.x264.AC3.With.Sample.LLG

seeders: 28     leechers: 16     updated: 1 week ago

Downloading Seeding from 0 peers
of -
0 b/s / 0 b/s

Warning! Use a VPN When Downloading Torrents.


Your IP Address is 54.156.39.245 Location is US.
Hide your IP ADDRESS with a VPN!

Get VPN App Mac Now!


    The Equalizer 2.2018.NEW.HDTS.x264.AC3.With.Sample.LLG ( 1.08 GB )
    SAMPLE.mkv14.53 MB
    The Equalizer 2.2018.NEW.HDTS.x264.AC3.With.Sample.LLG.mp41.07 GB

    By the way you can play this film on Mac with Elmedia Player



    ******************************Thumbnail:**********************



    ******************************Screenshots:********************

    Screenshot 1

    Screenshot 2

    Screenshot 3

    Screenshot 4

    Screenshot 5

    Screenshot 6

    Screenshot 7

    Screenshot 8

    Screenshot 9

    Screenshot 0



    ************************************************************

    The Equalizer 2.2018.NEW.HDTS.x264.AC3.With.Sample.LLG.mp4
    Format                                   : MPEG-4
    Format profile                           : Base Media
    Codec ID                                 : isom (isom/iso2/avc1/mp41)
    File size                                : 1.07 GiB
    Duration                                 : 1 h 55 min


    Video
    ID                                       : 1
    Format                                   : AVC
    Format/Info                              : Advanced Video Codec
    Format profile                           : [email protected]
    Format settings                          : CABAC / 4 Ref Frames
    Format settings, CABAC                   : Yes
    Format settings, RefFrames               : 4 frames
    Codec ID                                 : avc1
    Codec ID/Info                            : Advanced Video Coding
    Duration                                 : 1 h 55 min
    Bit rate                                 : 1 200 kb/s
    Width                                    : 720 pixels
    Height                                   : 344 pixels
    Display aspect ratio                     : 2.093
    Frame rate mode                          : Constant
    Frame rate                               : 23.976 (23976/1000) FPS
    Color space                              : YUV
    Chroma subsampling                       : 4:2:0
    Bit depth                                : 8 bits
    Scan type                                : Progressive
    Bits/(Pixel*Frame)                       : 0.202
    Stream size                              : 984 MiB (90%)


    Audio
    ID                                       : 2
    Format                                   : AC-3
    Format/Info                              : Audio Coding 3
    Commercial name                          : Dolby Digital
    Codec ID                                 : ac-3
    Duration                                 : 1 h 55 min
    Bit rate mode                            : Constant
    Bit rate                                 : 128 kb/s
    Channel(s)                               : 2 channels
    Channel layout                           : L R
    Sampling rate                            : 48.0 kHz
    Frame rate                               : 31.250 FPS (1536 SPF)
    Bit depth                                : 16 bits
    Compression mode                         : Lossy
    Stream size                              : 105 MiB (10%)
    Language                                 : English
    Service kind                             : Complete Main
    Default                                  : Yes
    Alternate group                          : 1



    ********************************************************




    SIMILAR

    TORRENT   UPLOADEDSIZESEEDS LEECHS
    Equalizer by dauphong 1 year 219.91 MB1 1
    The Equalizer 2 2018 720p HD-TS x264-24HD by TvTeam 2 months 2.40 GB132 96
    The Equalizer (2014) 1080p BrRip x264 - YIFY by pirateiro 4 years 1.95 GB0 0
    The.Equalizer.2.2018.720p.HDCAM.1XBET[WATERMARKED] by TvTeam 3 months 2.44 GB92 37
    The Equalizer 2 2018 720p HDCAM AC3-1XBET by xxxlavalxxx 3 months 2.44 GB2 201 846
    The Equalizer 2 2018 720p HDCAM AC3.LLG by LifeLongg 2 months 1.31 GB0 2
    The Equalizer 2 2018 NEW HD-TS X264-24HD by xxxlavalxxx 2 months 1.84 GB355 129

    Torrent Hash: 560552E495915DDD156C730FDDFAB4B0AD3A0C0C


    Num Trackers: 7 trackers




    TRACKER'S LIST COMPATIBLE WITH BITTORRENT CLIENT


    TrackerSeedersLeechersCompletedUpdated
    udp://tracker.coppersurfer.tk:6969 28 16 0 1 week
    http://announce.xxx-tracker.com:2710/announce 10 6 0 1 week
    http://explodie.org:6969/announce 5 5 0 1 week
    http://tracker.mg64.net:6881/announce 4 8 0 1 week
    http://mgtracker.org:2710/announce 4 8 0 1 week
    http://open.acgtracker.com:1096/announce 3 2 0 1 week
    http://tracker1.itzmx.com:8080/announce 3 1 0 1 week