The Layover 2017 1080p BluRay x264 DTS [MW]

seeders: 3     leechers: 0     updated: 1 month ago
Uploaded by MovieFreak10011 , was 2 months ago, day 10/06/2018 18:49:11
Downloaded 43 times, 2.72 GB - 1 file , movies > BDRip


Warning! Use a VPN When Downloading Torrents.


Your IP Address is 54.196.42.8 Location is US.
Hide your IP ADDRESS with a VPN!

Get VPN App Mac Now!


    The Layover 2017 1080p BluRay x264 DTS [MW] ( 2.72 GB )
    The Layover 2017 1080p BluRay x264 DTS [MW].mkv2.72 GB

    By the way you can play this film on Mac with Elmedia Player





    General
    Format                                   : Matroska
    Format version                           : Version 4 / Version 2
    File size                                : 2.72 GiB
    Duration                                 : 1 h 28 min
    Overall bit rate                         : 4 432 kb/s

    Video
    ID                                       : 1
    Format                                   : AVC
    Format/Info                              : Advanced Video Codec
    Format profile                           : [email protected]
    Format settings                          : CABAC / 4 Ref Frames
    Format settings, CABAC                   : Yes
    Format settings, RefFrames               : 4 frames
    Codec ID                                 : V_MPEG4/ISO/AVC
    Duration                                 : 1 h 28 min
    Bit rate                                 : 3 000 kb/s
    Width                                    : 1 920 pixels
    Height                                   : 800 pixels
    Display aspect ratio                     : 2.40:1
    Frame rate mode                          : Constant
    Frame rate                               : 24.000 FPS
    Color space                              : YUV
    Chroma subsampling                       : 4:2:0
    Bit depth                                : 8 bits
    Scan type                                : Progressive
    Bits/(Pixel*Frame)                       : 0.081
    Stream size                              : 1.79 GiB (66%)
    Writing library                          : x264 core 155 r2901 7d0ff22
    Default                                  : Yes
    Forced                                   : No

    Audio
    ID                                       : 2
    Format                                   : DTS
    Format/Info                              : Digital Theater Systems
    Codec ID                                 : A_DTS
    Duration                                 : 1 h 28 min
    Bit rate mode                            : Constant
    Bit rate                                 : 1 509 kb/s
    Channel(s)                               : 6 channels
    Channel positions                        : Front: L C R, Side: L R, LFE
    Sampling rate                            : 48.0 kHz
    Frame rate                               : 93.750 FPS (512 SPF)
    Bit depth                                : 24 bits
    Compression mode                         : Lossy
    Stream size                              : 950 MiB (34%)
    Language                                 : English
    Default                                  : Yes
    Forced                                   : No

    Text
    ID                                       : 3
    Format                                   : VobSub
    Muxing mode                              : zlib
    Codec ID                                 : S_VOBSUB
    Codec ID/Info                            : Picture based subtitle format used on DVDs
    Duration                                 : 1 h 20 min
    Bit rate                                 : 7 666 b/s
    Count of elements                        : 1414
    Stream size                              : 4.44 MiB (0%)
    Language                                 : English
    Default                                  : Yes
    Forced                                   : No

    Menu
    00:00:00.000                             : en:00:00:00.000
    00:05:32.167                             : en:00:05:32.167
    00:10:41.583                             : en:00:10:41.583
    00:15:18.583                             : en:00:15:18.583
    00:20:45.208                             : en:00:20:45.208
    00:26:04.000                             : en:00:26:04.000
    00:30:36.542                             : en:00:30:36.542
    00:35:53.417                             : en:00:35:53.417
    00:41:36.083                             : en:00:41:36.083
    00:46:42.167                             : en:00:46:42.167
    00:49:53.750                             : en:00:49:53.750
    00:55:15.417                             : en:00:55:15.417
    00:59:45.542                             : en:00:59:45.542
    01:03:46.750                             : en:01:03:46.750
    01:07:44.417                             : en:01:07:44.417
    01:14:05.542                             : en:01:14:05.542
    01:17:58.000                             : en:01:17:58.000
    01:21:50.542                             : en:01:21:50.542





    https://pichub.site/image/MZCAI
    https://pichub.site/image/MZhlX
    https://pichub.site/image/MZt48
    https://pichub.site/image/MZzCJ
    https://pichub.site/image/MZ8L5





    SIMILAR

    TORRENT   UPLOADEDSIZESEEDS LEECHS
    The.Layover.2017.1080p.BluRay.x264-VETO[EtHD] by EtHD 2 months 6.62 GB14 10
    The.Layover.2017.BRRip.XviD.AC3-EVO by TvTeam 2 months 1.33 GB12 1
    Vixen - Tasha Reign (The Layover 2) NEW 09 April 2018 by xxxlavalxxx 4 months 299.19 MB3 5
    NuruMassage.17.12.15.Mercedes.Carrera.The.Layover.XXX.1080p.M... by juggs99 8 months 983.41 MB4 3
    Blacked - Sinderella (Layover Hook-Up) NEW 30 May 2018 by xxxlavalxxx 1 month 302.79 MB17 3
    The Layover (2017) 720p BrRip x264 - YIFY by YIFY 2 months 746.00 MB1 201 205
    The Layover (2017) 1080p BrRip x264 - YIFY by YIFY 2 months 1.40 GB795 131

    Torrent Hash: 524942293F0DE816007D8E7BCD767C835922B19B


    Num Trackers: 4 trackers




    TRACKER'S LIST COMPATIBLE WITH BITTORRENT CLIENT


    TrackerSeedersLeechersCompletedUpdated
    http://191.96.249.23:6969/announce 3 0 0 1 month
    http://public.popcorn-tracker.org:6969/announce 3 0 0 1 month
    http://bt.xxx-tracker.com:2710/announce 1 0 0 1 month
    udp://thetracker.org:80/announce 0 1 0 1 month

    No comments yet.