The.Ritual.2017.720p.WEB-DL.AAC.LLG

seeders: 4     leechers: 1     updated: 9 months ago

Downloading Seeding from 0 peers
of -
0 b/s / 0 b/s

Warning! Use a VPN When Downloading Torrents.


Your IP Address is 54.163.22.209 Location is US.
Hide your IP ADDRESS with a VPN!

Get VPN App Mac Now!


    The.Ritual.2017.720p.WEB-DL.AAC.LLG ( 657.25 MB )
    Sample.mp43.69 MB
    The.Ritual.2017.720p.WEB-DL.AAC.LLG.mp4653.56 MB

    By the way you can play this film on Mac with Elmedia Player

    ******************************Thumbnail:**********************



    ******************************Screenshots:********************

    Screenshot 1

    Screenshot 2

    Screenshot 3

    Screenshot 4

    Screenshot 5

    Screenshot 6

    Screenshot 7

    Screenshot 8

    Screenshot 9

    Screenshot 0

    **************************************************************

    Complete name                            : The.Ritual.2017.720p.WEB-DL.AAC.LLG.mp4
    Format                                   : MPEG-4
    Format profile                           : Base Media
    Codec ID                                 : isom (isom/iso2/avc1/mp41)
    File size                                : 654 MiB
    Duration                                 : 1 h 34 min
    Overall bit rate                         : 971 kb/s
    Writing application                      : Lavf57.56.101

    Video
    ID                                       : 1
    Format                                   : AVC
    Format/Info                              : Advanced Video Codec
    Format profile                           : [email protected]
    Format settings                          : CABAC / 4 Ref Frames
    Format settings, CABAC                   : Yes
    Format settings, RefFrames               : 4 frames
    Codec ID                                 : avc1
    Codec ID/Info                            : Advanced Video Coding
    Duration                                 : 1 h 34 min
    Bit rate                                 : 900 kb/s
    Width                                    : 1 280 pixels
    Height                                   : 640 pixels
    Display aspect ratio                     : 2.000
    Frame rate mode                          : Constant
    Frame rate                               : 23.976 (23976/1000) FPS
    Color space                              : YUV
    Chroma subsampling                       : 4:2:0
    Bit depth                                : 8 bits
    Scan type                                : Progressive
    Bits/(Pixel*Frame)                       : 0.046
    Stream size                              : 606 MiB (93%)

    Audio
    ID                                       : 2
    Format                                   : AAC
    Format/Info                              : Advanced Audio Codec
    Format profile                           : LC
    Codec ID                                 : mp4a-40-2
    Duration                                 : 1 h 34 min
    Bit rate mode                            : Constant
    Bit rate                                 : 64.6 kb/s
    Channel(s)                               : 2 channels
    Channel positions                        : Front: L R
    Sampling rate                            : 48.0 kHz
    Frame rate                               : 46.875 FPS (1024 SPF)
    Compression mode                         : Lossy
    Stream size                              : 43.5 MiB (7%)
    Language                                 : English



    SIMILAR

    TORRENT   UPLOADEDSIZESEEDS LEECHS
    In This Moment - Ritual (2017) (Mp3 320kbps) [Hunter] by kajalsus 1 year 114.25 MB94 7
    Il rituale - The Ritual (2017).720p.H264.ita.eng.sub.ita.eng-MIRCrew by AvenGers3 8 months 1.69 GB102 10
    The.Ritual.2017.DVDRip.x264-CADAVER[EtMovies] by EtHD 3 months 589.25 MB8 7
    The Ritual.2017.HDRip.XviD.AC3-EVO[EtMovies] by EtHD 10 months 1.37 GB436 89
    The.Ritual.2017.HDRip.XviD.AC3-EVO by Supernova 10 months 1.37 GB52 97
    The Ritual (2017) 720p BrRip x264 - YIFY by YIFY 9 months 693.25 MB1 753 559
    The Ritual (2017) 1080p BrRip x264 - YIFY by YIFY 9 months 1.43 GB1 553 476

    Torrent Hash: F02A8B8825D82EC8E9225DA1C00A76D09447735E


    Num Trackers: 5 trackers




    TRACKER'S LIST COMPATIBLE WITH BITTORRENT CLIENT


    TrackerSeedersLeechersCompletedUpdated
    http://www.opentrackr.org/announce 4 1 0 9 months
    http://tracker.internetwarriors.net:1337/announce 2 0 0 9 months
    udp://tracker.pirateparty.gr:6969/announce 1 1 0 9 months
    udp://tracker.zer0day.to:1337/announce 1 0 0 9 months
    udp://tracker.coppersurfer.tk:6969/announce 1 0 0 9 months

    No comments yet.