The.Snowman.2017.720p.BRRip.AAC.LLG

seeders: 4     leechers: 4     updated: 6 months ago
Uploaded by LifeLongg4708 , was 6 months ago, day 08/01/2018 04:27:21
Downloaded 82 times, 840.56 MB - 3 files , filmes > BDRip


Warning! Use a VPN When Downloading Torrents.


Your IP Address is 54.166.228.35 Location is US.
Hide your IP ADDRESS with a VPN!

Get VPN App Mac Now!


    The.Snowman.2017.720p.BRRip.AAC.LLG ( 840.56 MB )
    English.srt77.33 kB
    Sample.mp48.46 MB
    The.Snowman.2017.720p.BRRip.AAC.LLG.mp4832.03 MB

    By the way you can play this film on Mac with Elmedia Player

    ******************************Thumbnail:**********************



    ******************************Screenshots:********************

    Screenshot 1

    Screenshot 2

    Screenshot 3

    Screenshot 4

    Screenshot 5

    Screenshot 6

    Screenshot 7

    Screenshot 8

    Screenshot 9

    Screenshot 0

    **************************************************************

    Complete name                            : The.Snowman.2017.720p.BRRip.AAC.LLG
    Format                                   : MPEG-4
    Format profile                           : Base Media
    Codec ID                                 : isom (isom/iso2/avc1/mp41)
    File size                                : 832 MiB
    Duration                                 : 1 h 59 min
    Overall bit rate                         : 975 kb/s
    Writing application                      : Lavf57.56.101

    Video
    ID                                       : 1
    Format                                   : AVC
    Format/Info                              : Advanced Video Codec
    Format profile                           : [email protected]
    Format settings                          : CABAC / 4 Ref Frames
    Format settings, CABAC                   : Yes
    Format settings, RefFrames               : 4 frames
    Codec ID                                 : avc1
    Codec ID/Info                            : Advanced Video Coding
    Duration                                 : 1 h 59 min
    Bit rate                                 : 900 kb/s
    Width                                    : 1 280 pixels
    Height                                   : 688 pixels
    Display aspect ratio                     : 1.85:1
    Frame rate mode                          : Constant
    Frame rate                               : 23.976 (23976/1000) FPS
    Color space                              : YUV
    Chroma subsampling                       : 4:2:0
    Bit depth                                : 8 bits
    Scan type                                : Progressive
    Bits/(Pixel*Frame)                       : 0.043
    Stream size                              : 772 MiB (93%)

    Audio
    ID                                       : 2
    Format                                   : AAC
    Format/Info                              : Advanced Audio Codec
    Format profile                           : LC
    Codec ID                                 : mp4a-40-2
    Duration                                 : 1 h 59 min
    Bit rate mode                            : Constant
    Bit rate                                 : 64.5 kb/s
    Channel(s)                               : 2 channels
    Channel positions                        : Front: L R
    Sampling rate                            : 48.0 kHz
    Frame rate                               : 46.875 FPS (1024 SPF)
    Compression mode                         : Lossy
    Stream size                              : 55.0 MiB (7%)
    Language                                 : English
    Default                                  : Yes
    Alternate group                          : 1
    Menus                                    : 3




    SIMILAR

    TORRENT   UPLOADEDSIZESEEDS LEECHS
    Sia - Snowman (Single) (2017) (Mp3 320kbps) [Hunter] by kajalsus 8 months 6.71 MB18 0
    The.Snowman.2017.HC.HDRip.X264-EVO by Supernova 7 months 1.37 GB8 7
    The.Snowman.2017.HC.HDRip.X264-EVO[EtMovies] by EtHD 7 months 1.37 GB77 36
    The.Snowman.2017.HC.HDRip.X264-EVO by xxxlavalxxx 7 months 1.37 GB834 949
    The.Snowman.2017.HC.HDRip.X264-EVO by makintos13 7 months 1.37 GB31 18
    The.Snowman.2017.BDRip.x264-GECKOS[EtMovies] by EtHD 6 months 607.12 MB44 14
    The.Snowman.2017.BRRip.XviD.AC3-EVO[EtMovies] by EtHD 6 months 1.41 GB251 112

    Torrent Hash: FE7E97EEDCAB6180537125F55A6EB6AD8F49B139


    Num Trackers: 11 trackers




    TRACKER'S LIST COMPATIBLE WITH BITTORRENT CLIENT


    TrackerSeedersLeechersCompletedUpdated
    udp://tracker.leechers-paradise.org:6969/announce 4 4 0 6 months
    udp://tracker.zer0day.to:1337/announce 4 3 0 6 months
    udp://tracker.coppersurfer.tk:6969/announce 4 3 0 6 months
    udp://tracker.leechers-paradise.org:6969 3 5 0 6 months
    udp://tracker.zer0day.to:1337 3 2 0 6 months
    udp://tracker.opentrackr.org:1337/announce 2 4 0 6 months
    http://mgtracker.org:2710/announce 0 4 0 6 months
    udp://tracker.coppersurfer.tk:6969 0 3 0 6 months
    http://5.79.83.193:2710/announce 0 3 0 6 months
    udp://tracker.opentrackr.org:1337 0 1 0 6 months
    http://open.acgtracker.com:1096/announce 0 0 0 6 months

    No comments yet.