The Snowman 2017 720p HC HDRip x264

seeders: 78     leechers: 27     updated: 3 weeks ago
Uploaded by MovieFreak3306 , was 1 month ago, day 13/12/2017 06:19:48
Downloaded 64 times, 1.19 GB - 1 file , filmes > Outros


Warning! Use a VPN When Downloading Torrents.


Your IP Address is 23.22.240.119 Location is US.
Hide your IP ADDRESS with a VPN!

Get VPN App Mac Now!


    The Snowman 2017 720p HC HDRip x264 ( 1.19 GB )
    The Snowman 2017 720p HC HDRip x264.mkv1.19 GB

    By the way you can play this film on Mac with Elmedia Player




    General
    Format                                   : Matroska
    Format version                           : Version 4 / Version 2
    File size                                : 1.19 GiB
    Duration                                 : 1 h 58 min
    Overall bit rate                         : 1 438 kb/s

    Video
    ID                                       : 1
    Format                                   : AVC
    Format/Info                              : Advanced Video Codec
    Format profile                           : [email protected]
    Format settings                          : CABAC / 1 Ref Frames
    Format settings, CABAC                   : Yes
    Format settings, RefFrames               : 1 frame
    Codec ID                                 : V_MPEG4/ISO/AVC
    Duration                                 : 1 h 58 min
    Bit rate                                 : 1 200 kb/s
    Width                                    : 1 280 pixels
    Height                                   : 688 pixels
    Display aspect ratio                     : 1.85:1
    Frame rate mode                          : Constant
    Frame rate                               : 25.000 FPS
    Color space                              : YUV
    Chroma subsampling                       : 4:2:0
    Bit depth                                : 8 bits
    Scan type                                : Progressive
    Bits/(Pixel*Frame)                       : 0.055
    Stream size                              : 1.00 GiB (84%)
    Writing library                          : x264 core 129
    Default                                  : Yes
    Forced                                   : No

    Audio
    ID                                       : 2
    Format                                   : AAC
    Format/Info                              : Advanced Audio Codec
    Format profile                           : LC
    Codec ID                                 : A_AAC-2
    Duration                                 : 1 h 58 min
    Bit rate                                 : 223 kb/s
    Channel(s)                               : 2 channels
    Channel positions                        : Front: L R
    Sampling rate                            : 44.1 kHz
    Frame rate                               : 43.066 FPS (1024 SPF)
    Compression mode                         : Lossy
    Stream size                              : 189 MiB (16%)
    Language                                 : English
    Default                                  : Yes
    Forced                                   : No















    SIMILAR

    TORRENT   UPLOADEDSIZESEEDS LEECHS
    Sia - Snowman (Single) (2017) (Mp3 320kbps) [Hunter] by kajalsus 2 months 6.71 MB18 0
    The.Snowman.2017.HC.HDRip.X264-EVO by Supernova 1 month 1.37 GB8 7
    The.Snowman.2017.HC.HDRip.X264-EVO[EtMovies] by EtHD 1 month 1.37 GB77 36
    The.Snowman.2017.HC.HDRip.X264-EVO by xxxlavalxxx 1 month 1.37 GB834 949
    The.Snowman.2017.HC.HDRip.X264-EVO by makintos13 1 month 1.37 GB31 18
    The.Snowman.2017.BDRip.x264-GECKOS[EtMovies] by EtHD 1 week 607.12 MB44 14
    The.Snowman.2017.BRRip.XviD.AC3-EVO[EtMovies] by EtHD 1 week 1.41 GB251 112

    Torrent Hash: CC5CCF404D08437E1DD957AD6A5EFCD1D7821DAF


    Num Trackers: 5 trackers




    TRACKER'S LIST COMPATIBLE WITH BITTORRENT CLIENT


    TrackerSeedersLeechersCompletedUpdated
    udp://tracker.coppersurfer.tk:6969/announce 78 27 0 1 month
    udp://tracker.zer0day.to:1337/announce 47 15 0 1 month
    udp://tracker.leechers-paradise.org:6969/announce 45 14 0 1 month
    udp://bt.xxx-tracker.com:2710/announce 2 0 0 1 month
    http://tracker.acg.gg:2710/announce 1 0 0 1 month

    No comments yet.