The.Wedding.Year.2019.HDRip.XviD.AC3.LLG

seeders: 0     leechers: 0     updated: 1 week ago

Downloading Seeding from 0 peers
of -
0 b/s / 0 b/s

Warning! Use a VPN When Downloading Torrents.


Your IP Address is 34.204.191.31 Location is US.
Hide your IP ADDRESS with a VPN!

Get VPN App Mac Now!


    The.Wedding.Year.2019.HDRip.XviD.AC3.LLG ( 1.03 GB )
    Sample.ts24.46 MB
    The.Wedding.Year.2019.HDRip.XviD.AC3.LLG.mp41.01 GB

    By the way you can play this film on Mac with Elmedia Player

    quote:




    ******************************Thumbnail:**********************




    ******************************Screenshots:********************

    Screenshot 1

    Screenshot 2

    Screenshot 3

    Screenshot 4

    Screenshot 5

    Screenshot 6

    Screenshot 7

    Screenshot 8

    Screenshot 9

    Screenshot 0


    ***************************************************************
    General
    The.Wedding.Year.2019.HDRip.XviD.AC3.LLG.mp4
    Format                                   : MPEG-4
    Format profile                           : Base Media
    Codec ID                                 : isom (isom/iso2/avc1/mp41)
    File size                                : 1.01 GiB
    Duration                                 : 1 h 30 min
    Overall bit rate mode                    : Variable
    Overall bit rate                         : 1 588 kb/s

    Video
    ID                                       : 1
    Format                                   : AVC
    Format/Info                              : Advanced Video Codec
    Format profile                           : [email protected]
    Format settings                          : CABAC / 1 Ref Frames
    Format settings, CABAC                   : Yes
    Format settings, Reference frames        : 1 frame
    Codec ID                                 : avc1
    Codec ID/Info                            : Advanced Video Coding
    Duration                                 : 1 h 30 min
    Bit rate mode                            : Variable
    Bit rate                                 : 1 200 kb/s
    Maximum bit rate                         : 3 600 kb/s
    Width                                    : 720 pixels
    Height                                   : 296 pixels
    Display aspect ratio                     : 2.40:1
    Frame rate mode                          : Constant
    Frame rate                               : 23.976 (23976/1000) FPS
    Color space                              : YUV
    Chroma subsampling                       : 4:2:0
    Bit depth                                : 8 bits
    Scan type                                : Progressive
    Bits/(Pixel*Frame)                       : 0.235
    Stream size                              : 780 MiB (76%)

    Audio
    ID                                       : 2
    Format                                   : AC-3
    Format/Info                              : Audio Coding 3
    Commercial name                          : Dolby Digital
    Codec ID                                 : ac-3
    Duration                                 : 1 h 30 min
    Bit rate mode                            : Constant
    Bit rate                                 : 384 kb/s
    Channel(s)                               : 6 channels
    Channel layout                           : L R C LFE Ls Rs
    Sampling rate                            : 48.0 kHz
    Frame rate                               : 31.250 FPS (1536 SPF)
    Bit depth                                : 16 bits
    Compression mode                         : Lossy
    Stream size                              : 250 MiB (24%)
    Language                                 : English
    Service kind                             : Complete Main



    ***************************************************************






    SIMILAR

    TORRENT   UPLOADEDSIZESEEDS LEECHS
    Top.End.Wedding.2019.1080p.BluRay.x264-PFa[TGx] by sotnikam 2 months 7.70 GB2 2
    The.Wedding.Guest.2018.DVDRip.x264-PFa by TvTeam 1 month 743.72 MB10 5
    Top.End.Wedding.2019.1080p.BluRay.x264-PFa[EtHD] by EtHD 2 months 7.70 GB0 2
    The.Wedding.Guest.2018.DVDRip.x264-PFa[EtMovies] by EtHD 1 month 743.72 MB5 1
    A.Very.Sordid.Wedding.2017.Bluray.1080p.DTS-HD.x264-Grym by vonRicht 2 years 14.51 GB3 6
    The.Wedding.Invitation.(2015)720p.WebRip.AC3.Plex by Supernova 2 years 2.07 GB0 2
    Alis.Wedding.2017.DVDRip.x264-PFa[EtMovies] by EtHD 1 year 757.24 MB9 4

    Did not find anything about this torrent yet...


    Torrent Hash: 47B584EF4BAD4166E64842506F0A78A6235BB418

    No comments yet.