Treasure Hounds (2017) Movie HDRip x264 AC3 by Full4movies.mp4

seeders: 1     leechers: 1     updated: 4 days ago
Uploaded by mimranjamil630 , was 1 week ago, day 09/04/2018 05:00:19
Downloaded 12 times, 861.41 MB - 1 file , filmes > DVDRip


Warning! Use a VPN When Downloading Torrents.


Your IP Address is 54.224.234.8 Location is US.
Hide your IP ADDRESS with a VPN!

Get VPN App Mac Now!


    Treasure Hounds (2017) Movie HDRip x264 AC3 by Full4movies.mp4 ( 861.41 MB )
    Treasure Hounds (2017) Movie HDRip x264 AC3 by Full4movies.mp4861.41 MB

    By the way you can play this film on Mac with Elmedia Player



    General
    Complete name                  : Treasure Hounds (2017) Movie HDRip x264 AC3 by Full4movies.mp4
    Format                         : MPEG-4
    Format profile                 : Base Media
    Codec ID                       : isom (isom/iso2/avc1/mp41)
    File size                      : 861 MiB
    Duration                       : 1 h 26 min
    Overall bit rate               : 1 396 kb/s
    Movie name                     : Treasure Hounds (2017) - www.Full4movies.co
    Writing application            : Lavf57.83.100

    Video
    ID                             : 1
    Format                         : AVC
    Format/Info                    : Advanced Video Codec
    Format profile                 : [email protected]
    Format settings, CABAC         : Yes
    Format settings, RefFrames     : 5 frames
    Codec ID                       : avc1
    Codec ID/Info                  : Advanced Video Coding
    Duration                       : 1 h 26 min
    Bit rate                       : 1 280 kb/s
    Width                          : 1 280 pixels
    Height                         : 720 pixels
    Display aspect ratio           : 16:9
    Frame rate mode                : Constant
    Frame rate                     : 23.976 (23976/1000) FPS
    Color space                    : YUV
    Chroma subsampling             : 4:2:0
    Bit depth                      : 8 bits
    Scan type                      : Progressive
    Bits/(Pixel*Frame)             : 0.058
    Stream size                    : 779 MiB (90%)
    Title                          : Treasure.Hounds.2017.1080p.WEBRip.DD5.1.x264-FGT
    Writing library                : x264 core 148 r2643 5c65704

    Audio
    ID                             : 2
    Format                         : AAC
    Format/Info                    : Advanced Audio Codec
    Format profile                 : LC
    Codec ID                       : 40
    Duration                       : 1 h 26 min
    Duration_LastFrame             : -11 ms
    Bit rate mode                  : Constant
    Bit rate                       : 130 kb/s
    Channel(s)                     : 2 channels
    Channel positions              : Front: L R
    Sampling rate                  : 48.0 kHz
    Frame rate                     : 46.875 FPS (1024 SPF)
    Compression mode               : Lossy
    Stream size                    : 80.0 MiB (9%)
    Title                          : Treasure.Hounds.2017.1080p.WEBRip.DD5.1.x264-FGT
    Language                       : English
    Default                        : Yes
    Alternate group                : 1

    Screen Shoots



    SIMILAR

    TORRENT   UPLOADEDSIZESEEDS LEECHS
    Treasure.Hounds.2017.HDRip.XviD.AC3-EVO[EtMovies] by EtHD 2 weeks 1.26 GB4 6
    Treasure.Hounds.2017.HDTV.450MB by .BONE. 2 months 466.42 MB24 6
    Treasure Hounds 2017 Movies 720p HDRip x264 AAC ESubs with Sample ☻rDX☻ by AsTyLe 1 week 862.32 MB1 2
    Treasure Hounds 2017 Movies 720p HDRip x264 5.1 ESubs +Sample ☻r by basicssom 1 week 1.04 GB3 8
    Hounds.of.Love.(2017).mp4 by Supernova 11 months 1.46 GB5 2
    Jimmy Buffett - Buried Treasure Volume 1 (2017) (Mp3 320kbps) by kajalsus 5 months 158.72 MB15 2
    Hounds.of.Love.2016.HDRip.XViD-ETRG by ExtraTorrentRG 1 year 704.47 MB773 360

    Torrent Hash: 7C74F697DCF0A61FCBCF73EA781CC45540126B3B


    Num Trackers: 2 trackers




    TRACKER'S LIST COMPATIBLE WITH BITTORRENT CLIENT


    TrackerSeedersLeechersCompletedUpdated
    http://191.96.249.23:6969/announce 1 1 0 4 days
    http://public.popcorn-tracker.org:6969/announce 1 1 0 4 days

    No comments yet.