White Fang 2018 1080p WEBRip DD 5.1 x264 [MW]

seeders: 22     leechers: 13     updated: 2 days ago
Uploaded by MovieFreak8861 , was 1 week ago, day 07/07/2018 18:40:20
Downloaded 9 times, 1.57 GB - 1 file , filmes > WebDL


Warning! Use a VPN When Downloading Torrents.


Your IP Address is 54.225.17.239 Location is US.
Hide your IP ADDRESS with a VPN!

Get VPN App Mac Now!


    White Fang 2018 1080p WEBRip DD 5.1 x264 [MW] ( 1.57 GB )
    White Fang 2018 1080p WEBRip DD 5.1 x264 [MW].mkv1.57 GB

    By the way you can play this film on Mac with Elmedia Player





    General
    Format                                   : Matroska
    Format version                           : Version 4 / Version 2
    File size                                : 1.57 GiB
    Duration                                 : 1 h 27 min
    Overall bit rate                         : 2 581 kb/s

    Video
    ID                                       : 1
    Format                                   : AVC
    Format/Info                              : Advanced Video Codec
    Format profile                           : [email protected]
    Format settings                          : CABAC / 4 Ref Frames
    Format settings, CABAC                   : Yes
    Format settings, RefFrames               : 4 frames
    Codec ID                                 : V_MPEG4/ISO/AVC
    Duration                                 : 1 h 27 min
    Bit rate                                 : 2 200 kb/s
    Width                                    : 1 920 pixels
    Height                                   : 800 pixels
    Display aspect ratio                     : 2.40:1
    Frame rate mode                          : Constant
    Frame rate                               : 24.000 FPS
    Color space                              : YUV
    Chroma subsampling                       : 4:2:0
    Bit depth                                : 8 bits
    Scan type                                : Progressive
    Bits/(Pixel*Frame)                       : 0.060
    Stream size                              : 1.33 GiB (85%)
    Writing library                          : x264 core 155 r2901 7d0ff22
    Default                                  : Yes
    Forced                                   : No

    Audio
    ID                                       : 2
    Format                                   : AC-3
    Format/Info                              : Audio Coding 3
    Codec ID                                 : A_AC3
    Duration                                 : 1 h 27 min
    Bit rate mode                            : Constant
    Bit rate                                 : 384 kb/s
    Channel(s)                               : 6 channels
    Channel positions                        : Front: L C R, Side: L R, LFE
    Sampling rate                            : 48.0 kHz
    Frame rate                               : 31.250 FPS (1536 SPF)
    Bit depth                                : 16 bits
    Compression mode                         : Lossy
    Delay relative to video                  : 2 ms
    Stream size                              : 239 MiB (15%)
    Language                                 : English
    Service kind                             : Complete Main
    Default                                  : Yes
    Forced                                   : No


    https://pichub.site/image/YeSeZ
    https://pichub.site/image/YeR2D
    https://pichub.site/image/YeEkg
    https://pichub.site/image/Ye7HX
    https://pichub.site/image/YedxI




    SIMILAR

    TORRENT   UPLOADEDSIZESEEDS LEECHS
    White.Fang.2018.HDRip.XviD.AC3-EVO by xxxlavalxxx 1 week 1.15 GB168 42
    White.Fang.2018.HDRip.XviD.AC3-EVO[EtMovies] by EtHD 1 week 1.15 GB15 4
    White Fang (2018) 1080p BrRip x264 - YIFY by YIFY 1 week 1.40 GB828 234
    White Fang (2018) 720p BrRip x264 - YIFY by YIFY 1 week 744.41 MB1 231 483
    White.Fang.2018.1080p.NF.WEB-DL.DD5.1.H.264-SiGMA[EtHD] by EtHD 1 week 2.46 GB33 9
    White Fang A.K.A. Croc-Blanc 2018 Movies 720p HDRip x264 5.1 +Sa by basicssom 1 week 821.82 MB7 4
    White Fang A.K.A. Croc-Blanc 2018 HDRip x264 5.1 +Sample ☻rDX☻ by basicssom 1 week 846.97 MB5 2

    Torrent Hash: FB835217E864CFC264E707CEB4BC46A9821CC27F


    Num Trackers: 9 trackers




    TRACKER'S LIST COMPATIBLE WITH BITTORRENT CLIENT


    TrackerSeedersLeechersCompletedUpdated
    udp://tracker.opentrackr.org:1337 22 13 0 2 days
    udp://tracker.leechers-paradise.org:6969 19 3 0 2 days
    udp://tracker.coppersurfer.tk:6969 8 4 0 2 days
    http://mgtracker.org:2710/announce 4 0 0 2 days
    http://tracker.mg64.net:6881/announce 2 0 0 2 days
    http://tracker1.itzmx.com:8080/announce 1 0 0 2 days
    http://announce.xxx-tracker.com:2710/announce 1 0 0 2 days
    http://retracker.spb.ru/announce 0 0 0 2 days
    http://open.acgtracker.com:1096/announce 0 0 0 2 days

    No comments yet.