White Fang (2018) 720p HDRip x264 AAC by Full4movies

seeders: 1     leechers: 0     updated: 2 months ago
Uploaded by mimranjamil3693 , was 2 months ago, day 09/07/2018 05:29:28
Downloaded 45 times, 650.33 MB - 1 file , movies > BDRip


Warning! Use a VPN When Downloading Torrents.


Your IP Address is 54.198.23.251 Location is US.
Hide your IP ADDRESS with a VPN!

Get VPN App Mac Now!


    White Fang (2018) 720p HDRip x264 AAC by Full4movies ( 650.33 MB )
    White Fang (2018) 720p HDRip x264 AAC by Full4movies.mkv650.33 MB

    By the way you can play this film on Mac with Elmedia Player



    General
    Complete name                  : White Fang (2018) 720p HDRip x264 AAC by Full4movies.mkv
    Format                         : Matroska
    Format version                 : Version 4 / Version 2
    File size                      : 650 MiB
    Duration                       : 1 h 27 min
    Overall bit rate               : 1 045 kb/s
    Movie name                     : www.Full4moveis.co
    Encoded date                   : UTC 2018-07-09 05:16:51
    Writing application            : mkvmerge v8.1.0 ('Psychedelic Postcard') 32bit
    Writing library                : libebml v1.3.1 + libmatroska v1.4.2

    Video
    ID                             : 1
    Format                         : AVC
    Format/Info                    : Advanced Video Codec
    Format profile                 : [email protected]
    Format settings, CABAC         : Yes
    Format settings, RefFrames     : 4 frames
    Codec ID                       : V_MPEG4/ISO/AVC
    Duration                       : 1 h 27 min
    Bit rate                       : 922 kb/s
    Width                          : 1 280 pixels
    Height                         : 536 pixels
    Display aspect ratio           : 2.40:1
    Frame rate mode                : Constant
    Frame rate                     : 24.000 FPS
    Color space                    : YUV
    Chroma subsampling             : 4:2:0
    Bit depth                      : 8 bits
    Scan type                      : Progressive
    Bits/(Pixel*Frame)             : 0.056
    Stream size                    : 574 MiB (88%)
    Writing library                : x264 core 152 r2851 ba24899
    Default                        : Yes
    Forced                         : No

    Audio
    ID                             : 2
    Format                         : AAC
    Format/Info                    : Advanced Audio Codec
    Format profile                 : LC
    Codec ID                       : A_AAC
    Duration                       : 1 h 27 min
    Bit rate                       : 121 kb/s
    Channel(s)                     : 2 channels
    Channel positions              : Front: L R
    Sampling rate                  : 48.0 kHz
    Frame rate                     : 46.875 FPS (1024 SPF)
    Compression mode               : Lossy
    Delay relative to video        : 1 ms
    Stream size                    : 75.5 MiB (12%)
    Language                       : English
    Default                        : Yes
    Forced                         : No

    Screen Shoots



    SIMILAR

    TORRENT   UPLOADEDSIZESEEDS LEECHS
    White.Fang.2018.HDRip.XviD.AC3-EVO by xxxlavalxxx 2 months 1.15 GB88 31
    White.Fang.2018.HDRip.XviD.AC3-EVO[EtMovies] by EtHD 2 months 1.15 GB11 2
    White Fang (2018) 720p BrRip x264 - YIFY by YIFY 2 months 744.41 MB785 150
    White Fang (2018) 1080p BrRip x264 - YIFY by YIFY 2 months 1.40 GB418 74
    White.Fang.2018.1080p.NF.WEB-DL.DD5.1.H.264-SiGMA[EtHD] by EtHD 2 months 2.46 GB16 6
    White.Fang.1997.DVDRip.x264-ARiES by Supernova 7 months 430.71 MB1 1
    White.Fang.1997.DVDRip.x264-ARiES by TvTeam 7 months 441.00 MB3 4

    Torrent Hash: 0FAC257B64F2ECC5D3454A7AADCB93FAF50229FA


    Num Trackers: 1 trackers




    TRACKER'S LIST COMPATIBLE WITH BITTORRENT CLIENT


    TrackerSeedersLeechersCompletedUpdated
    udp://thetracker.org:80/announce 1 0 0 2 months

    No comments yet.