A Dogs Journey 2019 1080p BluRay DD 5.1 x264 [MW]

seeders: 34     leechers: 9     updated: 1 year ago

Downloading Seeding from 0 peers
of -
0 b/s / 0 b/s
    • A Dog's Journey (2019)
    • 7.4 / 10 (3 748 votes)
    • Adventure, Comedy, Drama, Family, Fantasy
    • IMDb: 8385474
    • Audio Language: Inglês
    • Subtitle Language: Inglês
    • Video Quality: 1080p
    A Dogs Journey 2019 1080p BluRay DD 5.1 x264 [MW] ( 2.62 GB )
    A Dogs Journey 2019 1080p BluRay DD 5.1 x264 [MW].mkv2.62 GB





    General
    Format                                   : Matroska
    Format version                           : Version 4
    File size                                : 2.62 GiB
    Duration                                 : 1 h 48 min
    Overall bit rate                         : 3 454 kb/s

    Video
    ID                                       : 1
    Format                                   : AVC
    Format/Info                              : Advanced Video Codec
    Format profile                           : [email protected]
    Format settings                          : CABAC / 4 Ref Frames
    Format settings, CABAC                   : Yes
    Format settings, Reference frames        : 4 frames
    Codec ID                                 : V_MPEG4/ISO/AVC
    Duration                                 : 1 h 48 min
    Bit rate                                 : 3 000 kb/s
    Width                                    : 1 920 pixels
    Height                                   : 804 pixels
    Display aspect ratio                     : 2.40:1
    Frame rate mode                          : Constant
    Frame rate                               : 23.976 (24000/1001) FPS
    Color space                              : YUV
    Chroma subsampling                       : 4:2:0
    Bit depth                                : 8 bits
    Scan type                                : Progressive
    Bits/(Pixel*Frame)                       : 0.081
    Stream size                              : 2.27 GiB (87%)
    Writing library                          : x264 core 157 r2935 545de2f

    Audio
    ID                                       : 2
    Format                                   : AC-3
    Format/Info                              : Audio Coding 3
    Commercial name                          : Dolby Digital
    Codec ID                                 : A_AC3
    Duration                                 : 1 h 48 min
    Bit rate mode                            : Constant
    Bit rate                                 : 448 kb/s
    Channel(s)                               : 6 channels
    Channel layout                           : L R C LFE Ls Rs
    Sampling rate                            : 48.0 kHz
    Frame rate                               : 31.250 FPS (1536 SPF)
    Bit depth                                : 16 bits
    Compression mode                         : Lossy
    Stream size                              : 348 MiB (13%)
    Language                                 : English
    Service kind                             : Complete Main
    Default                                  : Yes
    Forced                                   : No

    Text
    ID                                       : 3
    Format                                   : VobSub
    Muxing mode                              : zlib
    Codec ID                                 : S_VOBSUB
    Codec ID/Info                            : Picture based subtitle format used on DVDs
    Duration                                 : 1 h 40 min
    Bit rate                                 : 14.4 kb/s
    Count of elements                        : 1963
    Stream size                              : 10.4 MiB (0%)
    Language                                 : English
    Default                                  : Yes
    Forced                                   : No


    Click To View Image

    https://pichub.site/image/hIcDN
    https://pichub.site/image/hIkmD
    https://pichub.site/image/hIwnZ
    https://pichub.site/image/hICYg
    https://pichub.site/image/hIi2X
    https://pichub.site/image/hIhzI




    SIMILAR

    TORRENT   UPLOADEDSIZESEEDS LEECHS
    A.Dogs.Journey.2019.BDRip.x264-GECKOS[TGx] by sotnikam 1 year 599.82 MB3 1
    A Dogs Journey.2019.HDRip.XviD.AC3-EVO by xxxlavalxxx 1 year 1.28 GB52 17
    A.Dogs.Journey.2019.1080p.BluRay.x264-GECKOS[EtHD] by EtHD 1 year 7.74 GB10 14
    A.Dogs.Journey.2019.720p.BluRay.x264-GECKOS[TGx] by sotnikam 1 year 4.42 GB4 4
    A.Dogs.Journey.2019.1080p.BluRay.x264-GECKOS[TGx] by sotnikam 1 year 7.73 GB6 9
    A Dogs Journey.2019.BRRip.XviD.AC3-EVO[TGx] by sotnikam 1 year 1.44 GB5 0
    A Dogs Journey.2019.1080p.WEB-DL.H264.AC3-EVO[TGx] by sotnikam 1 year 3.73 GB18 1

    Torrent Hash: 0BB9307DDA26044B4E48CC173723ED70190C2610


    Num Trackers: 10 trackers




    TRACKER'S LIST COMPATIBLE WITH BITTORRENT CLIENT


    TrackerSeedersLeechersCompletedUpdated
    udp://tracker.filepit.to:6969/announce 5 0 0 1 year
    udp://explodie.org:6969/announce 6 2 0 1 year
    udp://retracker.lanta-net.ru:2710/announce 7 0 0 1 year
    udp://torrentclub.tech:6969/announce 6 0 0 1 year
    udp://tracker.coppersurfer.tk:6969/announce 34 9 0 1 year
    udp://open.demonii.si:1337/announce 4 1 0 1 year
    udp://tracker.internetwarriors.net:1337/announce 11 0 0 1 year
    udp://tracker.nyaa.uk:6969/announce 4 0 0 1 year
    udp://denis.stalker.upeer.me:6969/announce 3 1 0 1 year
    udp://tracker.uw0.xyz:6969/announce 3 0 0 1 year

    No comments yet.