Chucky.S01E06.720p.WEB.h264-GOSSIP

seeders: 2     leechers: 0     updated: 2 months ago

Downloading Seeding from 0 peers
of -
0 b/s / 0 b/s
    Chucky.S01E06.720p.WEB.h264-GOSSIP ( 1.36 GB )
    Chucky.S01E06.720p.WEB.h264-GOSSIP.mkv1.36 GB
    RARBG.txt0.03 kB
    RARBG_DO_NOT_MIRROR.exe0.10 kB
    chucky.s01e06.720p.web.h264-gossip.nfo0.91 kB



    Screens... (click to enlarge):






    presents

    Chucky.S01E06.720p.WEB.h264-GOSSIP

    date......: 17/11/2021
    size......: 1.36 GiB
    runtime...: 49 min 20 s
    resolution: 1280x720
    bitrate...: 3 294 kb/s
    audio.....: (English) E-AC-3 6ch 640 kb/s
    subs......: English
    url.......: https://www.tvmaze.com/shows/45790/chucky

    They gossip this is a quality release!

    Infolink -> https://www.imdb.com/title/tt8388390/



    Quote:

    Mediainfo
    Video
    ID : 1
    Format : AVC
    Format/Info : Advanced Video Codec
    Format profile : [email protected]
    Format settings : CABAC / 4 Ref Frames
    Format settings, CABAC : Yes
    Format settings, Reference frames : 4 frames
    Codec ID : V_MPEG4/ISO/AVC
    Duration : 49 min 20 s
    Bit rate mode : Constant
    Bit rate : 3 294 kb/s
    Nominal bit rate : 6 000 kb/s
    Width : 1 280 pixels
    Height : 720 pixels
    Display aspect ratio : 16:9
    Frame rate mode : Constant
    Frame rate : 23.976 (24000/1001) FPS
    Color space : YUV
    Chroma subsampling : 4:2:0
    Bit depth : 8 bits
    Scan type : Progressive
    Bits/(Pixel*Frame) : 0.149
    Stream size : 1.14 GiB (84%)
    Language : English
    Default : Yes
    Forced : No
    Color range : Limited
    Color primaries : BT.709
    Transfer characteristics : BT.709
    Matrix coefficients : BT.709

    Audio
    ID : 2
    Format : E-AC-3
    Format/Info : Enhanced AC-3
    Commercial name : Dolby Digital Plus
    Codec ID : A_EAC3
    Duration : 49 min 20 s
    Bit rate mode : Constant
    Bit rate : 640 kb/s
    Channel(s) : 6 channels
    Channel layout : L R C LFE Ls Rs
    Sampling rate : 48.0 kHz
    Frame rate : 31.250 FPS (1536 SPF)
    Compression mode : Lossy
    Stream size : 226 MiB (16%)
    Language : English
    Service kind : Complete Main
    Default : Yes
    Forced : No

    Text
    ID : 3
    Format : UTF-8
    Codec ID : S_TEXT/UTF8
    Codec ID/Info : UTF-8 Plain Text
    Duration : 49 min 4 s
    Bit rate : 59 b/s
    Count of elements : 842
    Stream size : 21.2 KiB (0%)
    Title : English
    Language : English
    Default : No
    Forced : No





    SIMILAR

    TORRENT   UPLOADEDSIZESEEDS LEECHS
    Chucky.S01E06.XviD-AFG[TGx] by TGxGoodies 2 months 396.73 MB16 0
    Chucky.S01E06.720p.WEB.h264-GOSSIP by xxxlavalxxx 2 months 1.36 GB0 0
    Chucky.S01E06.1080p.WEB.h264-GOSSIP by TheMorozko 2 months 2.98 GB3 1
    Chucky.S01.COMPLETE.720p.AMZN.WEBRip.x264-GalaxyTV by TGxGoodies 2 months 2.06 GB1 1
    Chucky.S01E06.720p.WEB.h264-GOSSIP[TGx] by TGxGoodies 2 months 1.36 GB2 1
    Chucky.S01E06.1080p.HEVC.x265-MeGusta[TGx] by TGxGoodies 2 months 497.24 MB2 0
    Chucky.S01E06.1080p.WEB.h264-GOSSIP[TGx] by TGxGoodies 2 months 2.98 GB0 2

    Torrent Hash: 6AAD1FE1E8D902365D63C3057B4B7BBFEC0512C8


    Num Trackers: 4 trackers




    TRACKER'S LIST COMPATIBLE WITH BITTORRENT CLIENT


    TrackerSeedersLeechersCompletedUpdated
    http://bt2.archive.org:6969/announce 2 0 0 2 months
    udp://tracker.coppersurfer.tk:6969 0 0 0 2 months
    http://bt1.archive.org:6969/announce 1 0 0 2 months
    http://open.acgtracker.com:1096/announce 0 0 0 2 months

    No comments yet.