Curb.Your.Enthusiasm.S11E04.720p.WEB.H264-CAKES

seeders: 4     leechers: 0     updated: 2 months ago

Downloading Seeding from 0 peers
of -
0 b/s / 0 b/s
    Curb.Your.Enthusiasm.S11E04.720p.WEB.H264-CAKES ( 1.04 GB )
    RARBG.txt0.03 kB
    RARBG_DO_NOT_MIRROR.exe0.10 kB
    curb.your.enthusiasm.s11e04.720p.web.h264-cakes.mkv1.04 GB
    curb.your.enthusiasm.s11e04.720p.web.h264-cakes.nfo0.25 kB



    Screens... (click to enlarge):











    Curb.Your.Enthusiasm.S11E04.720p.WEB.H264-CAKES

    Infolink -> https://www.imdb.com/title/tt0264235/



    Quote:

    Mediainfo
    Video
    ID : 1
    Format : AVC
    Format/Info : Advanced Video Codec
    Format profile : [email protected]
    Format settings : CABAC / 4 Ref Frames
    Format settings, CABAC : Yes
    Format settings, Reference frames : 4 frames
    Codec ID : V_MPEG4/ISO/AVC
    Duration : 39 min 20 s
    Bit rate mode : Variable
    Bit rate : 3 400 kb/s
    Maximum bit rate : 5 100 kb/s
    Width : 1 280 pixels
    Height : 720 pixels
    Display aspect ratio : 16:9
    Frame rate mode : Constant
    Frame rate : 23.976 (24000/1001) FPS
    Color space : YUV
    Chroma subsampling : 4:2:0
    Bit depth : 8 bits
    Scan type : Progressive
    Bits/(Pixel*Frame) : 0.154
    Stream size : 936 MiB (88%)
    Writing library : x264 core 157 r2965 861cec4
    Encoding settings : cabac=1 / ref=4 / deblock=1:0:0 / analyse=0x1:0x111 / me=hex / subme=7 / psy=1 / psy_rd=1.00:0.00 / mixed_ref=1 / me_range=16 / chroma_me=1 / trellis=1 / 8x8dct=0 / cqm=0 / deadzone=21,11 / fast_pskip=1 / chroma_qp_offset=-2 / threads=22 / lookahead_threads=3 / sliced_threads=0 / nr=0 / decimate=1 / interlaced=0 / bluray_compat=0 / constrained_intra=0 / bframes=3 / b_pyramid=2 / b_adapt=1 / b_bias=0 / direct=1 / weightb=1 / open_gop=0 / weightp=2 / keyint=96 / keyint_min=96 / scenecut=40 / intra_refresh=0 / rc_lookahead=40 / rc=2pass / mbtree=1 / bitrate=3400 / ratetol=1.0 / qcomp=0.60 / qpmin=0 / qpmax=69 / qpstep=4 / cplxblur=20.0 / qblur=0.5 / vbv_maxrate=5100 / vbv_bufsize=2550 / nal_hrd=vbr / filler=0 / ip_ratio=1.40 / aq=1:1.00
    Default : Yes
    Forced : No
    Color range : Limited
    Color primaries : BT.709
    Transfer characteristics : BT.709
    Matrix coefficients : BT.709

    Audio
    ID : 2
    Format : AC-3
    Format/Info : Audio Coding 3
    Commercial name : Dolby Digital
    Codec ID : A_AC3
    Duration : 39 min 20 s
    Bit rate mode : Constant
    Bit rate : 384 kb/s
    Channel(s) : 6 channels
    Channel layout : L R C LFE Ls Rs
    Sampling rate : 48.0 kHz
    Frame rate : 31.250 FPS (1536 SPF)
    Compression mode : Lossy
    Stream size : 108 MiB (10%)
    Language : English
    Service kind : Complete Main
    Default : Yes
    Forced : No

    Text #1
    ID : 3
    Format : UTF-8
    Codec ID : S_TEXT/UTF8
    Codec ID/Info : UTF-8 Plain Text
    Title : English
    Language : English
    Default : No
    Forced : No

    Text #2
    ID : 4
    Format : UTF-8
    Codec ID : S_TEXT/UTF8
    Codec ID/Info : UTF-8 Plain Text
    Title : Latin America Spanish
    Language : Spanish
    Default : No
    Forced : No





    SIMILAR

    TORRENT   UPLOADEDSIZESEEDS LEECHS
    Curb.Your.Enthusiasm.S09.1080p.AMZN.WEBRip.DDP5.1.x264-NTb by Supernova 3 years 34.21 GB1 1
    Curb.Your.Enthusiasm.S11.COMPLETE.720p.HMAX.WEBRip.x264-GalaxyTV by TGxGoodies 3 weeks 3.01 GB39 13
    Curb.Your.Enthusiasm.S10.COMPLETE.720p.AMZN.WEBRip.x264-GalaxyTV by sotnikam 1 year 3.20 GB47 25
    Curb.Your.Enthusiasm.S07.1080p.AMZN.WEBRip.DD5.1.x264-herkz by Supernova 3 years 31.38 GB0 5
    Curb.Your.Enthusiasm.S08.1080p.AMZN.WEBRip.DD5.1.x264-herkz by Supernova 3 years 26.70 GB2 1
    Curb Appeal Xtreme S01 1080p AMZN WEBRip DDP5 1 x264-squalor EZTV by eztv 2 months 25.21 GB1 0
    Curb.Your.Enthusiasm.S09E06.HDTV.x264-UAV by Supernova 4 years 275.89 MB5 2

    Torrent Hash: 31AA08B1C9CC82AD04012C9A893F0CC5C7027297


    Num Trackers: 4 trackers




    TRACKER'S LIST COMPATIBLE WITH BITTORRENT CLIENT


    TrackerSeedersLeechersCompletedUpdated
    http://bt1.archive.org:6969/announce 4 0 0 2 months
    http://bt2.archive.org:6969/announce 2 0 0 2 months
    http://open.acgtracker.com:1096/announce 0 0 0 2 months
    udp://tracker.coppersurfer.tk:6969 0 0 0 2 months

    No comments yet.