Dont.Breathe.2.2021.720p.PROPER.WEBRip.837MB.x264[MARVELANDDC]

seeders: 17     leechers: 24     updated: 1 month ago

Downloading Seeding from 0 peers
of -
0 b/s / 0 b/s
    Dont.Breathe.2.2021.720p.PROPER.WEBRip.837MB.x264[MARVELANDDC] ( 824.13 MB )
    Dont.Breathe.2.2021.720p.PROPER.WEBRip.837MB.x264[MARVELANDDC].mp4824.13 MB

    MOVIE - DONT BREATHE 2
    IMDB --https://www.imdb.com/title/tt6246322/







    format                                   : MPEG-4
    Format profile                           : Base Media
    File size                                : 824 MiB
    Duration                                 : 1 h 38 min
    Overall bit rate                         : 1 173 kb/s


    Video
    ID                                       : 1
    Format                                   : AVC
    Format/Info                              : Advanced Video Codec
    Format profile                           : [email protected]
    Format settings                          : CABAC / 5 Ref Frames
    Format settings, CABAC                   : Yes
    Format settings, Reference frames        : 5 frames
    Codec ID                                 : avc1
    Codec ID/Info                            : Advanced Video Coding
    Duration                                 : 1 h 38 min
    Bit rate                                 : 1 040 kb/s
    Maximum bit rate                         : 6 600 kb/s
    Width                                    : 1 920 pixels
    Height                                   : 790 pixels
    Display aspect ratio                     : 2.40:1
    Frame rate mode                          : Constant
    Frame rate                               : 24.000 FPS
    Color space                              : YUV
    Chroma subsampling                       : 4:2:0
    Bit depth                                : 8 bits
    Scan type                                : Progressive
    Bits/(Pixel*Frame)                       : 0.029
    Stream size                              : 730 MiB (89%)
    Color range                              : Limited
    Color primaries                          : BT.709
    Transfer characteristics                 : BT.709
    Matrix coefficients                      : BT.709
    Codec configuration box                  : avcC

    Audio
    ID                                       : 2
    Format                                   : AAC LC
    Format/Info                              : Advanced Audio Codec Low Complexity
    Codec ID                                 : mp4a-40-2
    Duration                                 : 1 h 38 min
    Source duration                          : 1 h 38 min
    Bit rate mode                            : Constant
    Bit rate                                 : 128 kb/s
    Channel(s)                               : 2 channels
    Channel layout                           : L R
    Sampling rate                            : 48.0 kHz
    Frame rate                               : 46.875 FPS (1024 SPF)
    Compression mode                         : Lossy
    Stream size                              : 89.9 MiB (11%)
    Source stream size                       : 89.9 MiB (11%)
    Default                                  : Yes
    Alternate group                          : 1
    mdhd_Duration                            : 5893568



    SIMILAR

    TORRENT   UPLOADEDSIZESEEDS LEECHS
    Dont.Breathe.2016.BRRip.XViD-ETRG by ExtraTorrentRG 5 years 707.69 MB0 0
    Dont Breathe 2 (2021) [2160p] [4K] [WEB] [5.1] [YTS.MX] by YIFY 1 month 4.38 GB50 108
    Dont.Breathe.2.2021.HDRip.XviD.AC3-EVO by xxxlavalxxx 1 month 1.34 GB0 0
    Dont.Breathe.2016.720p.BluRay.DTS.x264-iFT[EtHD] by EtHD 5 years 5.05 GB0 0
    Dont Breathe 2 (2021) [1080p] [WEBRip] [5.1] [YTS.MX] by YIFY 1 month 1.81 GB731 269
    Dont.Breathe.2016.720p.WEB-DL.x264.DD5.1-iFT[EtHD] by EtHD 5 years 2.52 GB0 0
    Dont Breathe 2 (2021) [720p] [WEBRip] [YTS.MX] by YIFY 1 month 901.57 MB260 196

    Torrent Hash: A657AF46F972D5EA0D9CEEC983FC4C7D484DC40F


    Num Trackers: 9 trackers




    TRACKER'S LIST COMPATIBLE WITH BITTORRENT CLIENT


    TrackerSeedersLeechersCompletedUpdated
    udp://tracker.opentrackr.org:1337/announce 17 24 0 1 month
    udp://opentor.org:2710/announce 0 0 0 1 month
    http://openbittorrent.com:80/announce 0 0 0 1 month
    udp://9.rarbg.com:2810/announce 0 0 0 1 month
    udp://www.torrent.eu.org:451/announce 0 0 0 1 month
    udp://retracker.lanta-net.ru:2710/announce 0 0 0 1 month
    udp://opentracker.i2p.rocks:6969/announce 0 0 0 1 month
    udp://tracker.openbittorrent.com:6969/announce 7 14 0 1 month
    udp://exodus.desync.com:6969/announce 8 15 0 1 month

    No comments yet.