Greys.Anatomy.S18E02.720p.HDTV.x264-SYNCOPY

seeders: 4     leechers: 55     updated: 1 month ago

Downloading Seeding from 0 peers
of -
0 b/s / 0 b/s
    Greys.Anatomy.S18E02.720p.HDTV.x264-SYNCOPY ( 781.86 MB )
    RARBG.txt0.03 kB
    RARBG_DO_NOT_MIRROR.exe0.10 kB
    greys.anatomy.s18e02.720p.hdtv.x264-syncopy.mkv781.85 MB
    greys.anatomy.s18e02.720p.hdtv.x264-syncopy.nfo8.85 kB



    Screens... (click to enlarge):






    H7

    RELEASE INFO

    Greys Anatomy S18E02

    RELEASE DATE     :         2021-10-07
    AIR DATE         :         2021-10-07
    VIDEO BIT RATE   :          2224 KBPS
    VIDEO FPS        :             23.976
    VIDEO RESOLUTION :           1280x718
    AUDIO BIT RATE   :           384 KBPS
    AUDIO CHANNELS   :               6 CH
    DURATION         :       00:41:53.052
    RAR COUNT        :           17x50 MB

    NOTES

    Ascii by H7

    Infolink -> https://www.imdb.com/title/tt0413573/



    Quote:

    Mediainfo
    Video
    ID : 1
    Format : AVC
    Format/Info : Advanced Video Codec
    Format profile : [email protected]
    Format settings : CABAC / 5 Ref Frames
    Format settings, CABAC : Yes
    Format settings, Reference frames : 5 frames
    Codec ID : V_MPEG4/ISO/AVC
    Duration : 41 min 53 s
    Bit rate : 2 224 kb/s
    Width : 1 280 pixels
    Height : 718 pixels
    Display aspect ratio : 16:9
    Frame rate mode : Constant
    Frame rate : 23.976 (24000/1001) FPS
    Color space : YUV
    Chroma subsampling : 4:2:0
    Bit depth : 8 bits
    Scan type : Progressive
    Bits/(Pixel*Frame) : 0.101
    Stream size : 666 MiB (85%)
    Writing library : x264 core 164 r3075 66a5bc1
    Encoding settings : cabac=1 / ref=5 / deblock=1:0:0 / analyse=0x3:0x113 / me=hex / subme=8 / psy=1 / psy_rd=1.00:0.00 / mixed_ref=1 / me_range=16 / chroma_me=1 / trellis=2 / 8x8dct=1 / cqm=0 / deadzone=21,11 / fast_pskip=1 / chroma_qp_offset=-2 / threads=22 / lookahead_threads=3 / sliced_threads=0 / nr=0 / decimate=1 / interlaced=0 / bluray_compat=0 / constrained_intra=0 / bframes=3 / b_pyramid=2 / b_adapt=1 / b_bias=0 / direct=3 / weightb=1 / open_gop=0 / weightp=2 / keyint=250 / keyint_min=23 / scenecut=40 / intra_refresh=0 / rc_lookahead=50 / rc=crf / mbtree=1 / crf=18.0 / qcomp=0.60 / qpmin=0 / qpmax=69 / qpstep=4 / ip_ratio=1.40 / aq=1:1.00
    Language : English
    Default : Yes
    Forced : No
    Color range : Limited
    Matrix coefficients : BT.709

    Audio
    ID : 2
    Format : AC-3
    Format/Info : Audio Coding 3
    Commercial name : Dolby Digital
    Codec ID : A_AC3
    Duration : 41 min 53 s
    Bit rate mode : Constant
    Bit rate : 384 kb/s
    Channel(s) : 6 channels
    Channel layout : L R C LFE Ls Rs
    Sampling rate : 48.0 kHz
    Frame rate : 31.250 FPS (1536 SPF)
    Compression mode : Lossy
    Stream size : 115 MiB (15%)
    Service kind : Complete Main
    Default : Yes
    Forced : No





    SIMILAR

    TORRENT   UPLOADEDSIZESEEDS LEECHS
    Grey's Anatomy Season 13 Complete 720p HDTV x264 [i_c] by ice_cracked 2 years 12.90 GB12 10
    Grey's Anatomy Season 14 Complete 720p HDTV x264 [i_c] by ice_cracked 3 years 13.10 GB35 48
    Greys.Anatomy.S17.COMPLETE.720p.AMZN.WEBRip.x264-GalaxyTV by sotnikam 6 months 4.94 GB37 71
    Greys.Anatomy.S14.720p.AMZN.WEB-DL.DDP5.1.H264-NTb by felipewinchester 3 years 26.52 GB1 3
    Greys.Anatomy.S17E05.WEB.h264-BAE[TGx] by sotnikam 1 year 348.67 MB4 0
    Greys.Anatomy.S17E04.WEB.h264-BAE[TGx] by sotnikam 1 year 350.62 MB8 8
    Greys.Anatomy.S17E08.Its.All.Too.Much.1080p.HDTV.x264-aFi[TGx] by sotnikam 9 months 1.54 GB120 113

    Torrent Hash: 5EAF0694527FFDADB94E38DB88E05589B1F74F34


    Num Trackers: 6 trackers




    TRACKER'S LIST COMPATIBLE WITH BITTORRENT CLIENT


    TrackerSeedersLeechersCompletedUpdated
    udp://tracker.coppersurfer.tk:6969 0 0 0 1 month
    http://open.acgtracker.com:1096/announce 1 0 0 1 month
    http://bt2.archive.org:6969/announce 2 0 0 1 month
    http://sugoi.pomf.se/announce 3 42 0 1 month
    http://tracker.pomf.se/announce 4 55 0 1 month
    http://bt1.archive.org:6969/announce 4 0 0 1 month

    No comments yet.