Greys.Anatomy.S18E02.WEBRip.x264-ION10

seeders: 3     leechers: 25     updated: 1 month ago

Downloading Seeding from 0 peers
of -
0 b/s / 0 b/s
    Greys.Anatomy.S18E02.WEBRip.x264-ION10 ( 410.91 MB )
    Greys.Anatomy.S18E02.WEBRip.x264-ION10.mp4410.84 MB
    RARBG.txt0.03 kB
    RARBG_DO_NOT_MIRROR.exe0.10 kB
    Subs/2_English.srt73.71 kB



    Screens... (click to enlarge):












    Infolink -> https://www.imdb.com/title/tt0413573/



    Quote:

    Mediainfo
    Video
    ID : 1
    Format : AVC
    Format/Info : Advanced Video Codec
    Format profile : [email protected]
    Format settings : CABAC / 5 Ref Frames
    Format settings, CABAC : Yes
    Format settings, Reference frames : 5 frames
    Codec ID : avc1
    Codec ID/Info : Advanced Video Coding
    Duration : 42 min 43 s
    Bit rate : 1 100 kb/s
    Width : 720 pixels
    Height : 400 pixels
    Display aspect ratio : 16:9
    Frame rate mode : Constant
    Frame rate : 23.976 (24000/1001) FPS
    Color space : YUV
    Chroma subsampling : 4:2:0
    Bit depth : 8 bits
    Scan type : Progressive
    Bits/(Pixel*Frame) : 0.159
    Stream size : 331 MiB (81%)
    Title : RARBG - Greys.Anatomy.S18E02.WEBRip.x264-ION10
    Writing library : x264 core 152 r2851M ba24899
    Encoding settings : cabac=1 / ref=5 / deblock=1:-1:-1 / analyse=0x3:0x113 / me=umh / subme=9 / psy=1 / psy_rd=1.00:0.15 / mixed_ref=1 / me_range=16 / chroma_me=1 / trellis=2 / 8x8dct=1 / cqm=0 / deadzone=21,11 / fast_pskip=1 / chroma_qp_offset=-3 / threads=12 / lookahead_threads=1 / sliced_threads=0 / nr=0 / decimate=1 / interlaced=0 / bluray_compat=0 / constrained_intra=0 / bframes=3 / b_pyramid=2 / b_adapt=2 / b_bias=0 / direct=3 / weightb=1 / open_gop=0 / weightp=2 / keyint=250 / keyint_min=23 / scenecut=40 / intra_refresh=0 / rc_lookahead=50 / rc=abr / mbtree=1 / bitrate=1100 / ratetol=1.0 / qcomp=0.60 / qpmin=0 / qpmax=69 / qpstep=4 / ip_ratio=1.40 / aq=1:1.00
    Encoded date : UTC 2021-10-08 04:37:35
    Tagged date : UTC 2021-10-08 04:37:35
    Codec configuration box : avcC

    Audio
    ID : 2
    Format : AAC LC
    Format/Info : Advanced Audio Codec Low Complexity
    Codec ID : mp4a-40-2
    Duration : 42 min 43 s
    Duration_LastFrame : -11 ms
    Bit rate mode : Constant
    Bit rate : 256 kb/s
    Channel(s) : 2 channels
    Channel layout : L R
    Sampling rate : 48.0 kHz
    Frame rate : 46.875 FPS (1024 SPF)
    Compression mode : Lossy
    Stream size : 78.2 MiB (19%)
    Title : RARBG - Greys.Anatomy.S18E02.WEBRip.x264-ION10
    Language : English
    Default : Yes
    Alternate group : 1
    Encoded date : UTC 2021-10-08 04:37:35
    Tagged date : UTC 2021-10-08 04:37:35





    SIMILAR

    TORRENT   UPLOADEDSIZESEEDS LEECHS
    Grey's Anatomy Season 13 Complete 720p HDTV x264 [i_c] by ice_cracked 2 years 12.90 GB12 10
    Grey's Anatomy Season 14 Complete 720p HDTV x264 [i_c] by ice_cracked 3 years 13.10 GB35 48
    Greys.Anatomy.S17.COMPLETE.720p.AMZN.WEBRip.x264-GalaxyTV by sotnikam 6 months 4.94 GB37 71
    Greys.Anatomy.S14.720p.AMZN.WEB-DL.DDP5.1.H264-NTb by felipewinchester 3 years 26.52 GB1 3
    Greys.Anatomy.S17E05.WEB.h264-BAE[TGx] by sotnikam 1 year 348.67 MB4 0
    Greys.Anatomy.S17E04.WEB.h264-BAE[TGx] by sotnikam 1 year 350.62 MB8 8
    Greys.Anatomy.S17E08.Its.All.Too.Much.1080p.HDTV.x264-aFi[TGx] by sotnikam 9 months 1.54 GB120 113

    Torrent Hash: 50D42AA5646ABBABEB9C9B12614C349A507E18FA


    Num Trackers: 6 trackers




    TRACKER'S LIST COMPATIBLE WITH BITTORRENT CLIENT


    TrackerSeedersLeechersCompletedUpdated
    udp://tracker.coppersurfer.tk:6969 0 0 0 1 month
    http://open.acgtracker.com:1096/announce 0 0 0 1 month
    http://sugoi.pomf.se/announce 1 19 0 1 month
    http://bt2.archive.org:6969/announce 2 0 0 1 month
    http://tracker.pomf.se/announce 3 25 0 1 month
    http://bt1.archive.org:6969/announce 3 0 0 1 month

    No comments yet.