Jurassic World Fallen Kingdom 2018 4K UHD 2160p BluRay x265 Dual Audio [Hindi DTS 6CH - English DTS 6CH] ESub [MW]

seeders: 52     leechers: 43     updated: 2 years ago

Downloading Seeding from 0 peers
of -
0 b/s / 0 b/s
    Jurassic World Fallen Kingdom 2018 4K UHD 2160p BluRay x265 Dual Audio [Hindi DTS 6CH - English DTS 6CH] ESub [MW] ( 7.57 GB )
    Jurassic World Fallen Kingdom 2018 4K UHD 2160p BluRay x265 Dual Audio [Hindi DTS 6CH - English DTS 6CH] ESub [MW].mkv7.57 GB






    Jurassic World Fallen Kingdom 2018 4K UHD 2160p BluRay x265 Dual Audio [Hindi DTS 6CH - English DTS 6CH] ESub [MW]

    General
    Format                                   : Matroska
    Format version                           : Version 4 / Version 2
    File size                                : 7.57 GiB
    Duration                                 : 2 h 8 min
    Overall bit rate                         : 8 447 kb/s

    Video
    ID                                       : 1
    Format                                   : HEVC
    Format/Info                              : High Efficiency Video Coding
    Commercial name                          : HDR10
    Format profile                           : Main [email protected]@High
    Codec ID                                 : V_MPEGH/ISO/HEVC
    Duration                                 : 2 h 8 min
    Bit rate                                 : 6 914 kb/s
    Width                                    : 3 840 pixels
    Height                                   : 1 608 pixels
    Display aspect ratio                     : 2.40:1
    Frame rate mode                          : Constant
    Frame rate                               : 23.976 (24000/1001) FPS
    Color space                              : YUV
    Chroma subsampling                       : 4:2:0 (Type 2)
    Bit depth                                : 10 bits
    Bits/(Pixel*Frame)                       : 0.047
    Stream size                              : 6.20 GiB (82%)
    Default                                  : Yes
    Forced                                   : No

    Audio #1
    ID                                       : 2
    Format                                   : DTS
    Format/Info                              : Digital Theater Systems
    Codec ID                                 : A_DTS
    Duration                                 : 2 h 8 min
    Bit rate mode                            : Constant
    Bit rate                                 : 756 kb/s
    Channel(s)                               : 6 channels
    Channel positions                        : Front: L C R, Side: L R, LFE
    Sampling rate                            : 48.0 kHz
    Frame rate                               : 93.750 FPS (512 SPF)
    Bit depth                                : 16 bits
    Compression mode                         : Lossy
    Stream size                              : 694 MiB (9%)
    Language                                 : Hindi
    Default                                  : Yes
    Forced                                   : No

    Audio #2
    ID                                       : 3
    Format                                   : DTS
    Format/Info                              : Digital Theater Systems
    Codec ID                                 : A_DTS
    Duration                                 : 2 h 8 min
    Bit rate mode                            : Constant
    Bit rate                                 : 756 kb/s
    Channel(s)                               : 6 channels
    Channel positions                        : Front: L C R, Side: L R, LFE
    Sampling rate                            : 48.0 kHz
    Frame rate                               : 93.750 FPS (512 SPF)
    Bit depth                                : 16 bits
    Compression mode                         : Lossy
    Stream size                              : 694 MiB (9%)
    Language                                 : English
    Default                                  : No
    Forced                                   : No

    Text #1
    ID                                       : 4
    Format                                   : PGS
    Muxing mode                              : zlib
    Codec ID                                 : S_HDMV/PGS
    Codec ID/Info                            : Picture based subtitle format used on BDs/HD-DVDs
    Duration                                 : 2 h 7 min
    Bit rate                                 : 11.5 kb/s
    Count of elements                        : 3540
    Stream size                              : 10.5 MiB (0%)
    Language                                 : English
    Default                                  : Yes
    Forced                                   : No


    https://pichub.site/image/E3oLt
    https://pichub.site/image/E3pQ4
    https://pichub.site/image/E35dp
    https://pichub.site/image/E3lGy
    https://pichub.site/image/E363b
    https://pichub.site/image/E3XI0




    SIMILAR

    TORRENT   UPLOADEDSIZESEEDS LEECHS
    Jurassic.World-Fallen.Kingdom.2018.Bluray.1080p.x264-Grym by vonRicht 2 years 18.15 GB59 49
    Jurassic.World.Camp.Cretaceous.S01.COMPLETE.1080p.NF.WEBRip.DDP5 by sotnikam 2 months 7.98 GB20 25
    Jurassic World: Camp Cretaceous (2020) S01 Complete 720p NF WEB-DL Dual Audio [Hindi + English] ⭐1.6 GB⭐ ESub AAC x264 - Shadow (BonsaiHD) by kayl1337 2 months 1.63 GB124 67
    Jurassic.World.Camp.Cretaceous.S01.COMPLETE.720p.NF.WEBRip.x264- by sotnikam 2 months 1.29 GB259 83
    Jurassic World 1080p Dual Audio HDRip SenhoreSTorrenT by SenhoreS 5 years 4.91 GB4 0
    Jurassic World 720p Dual Audio HDRip SenhoreSTorrenT by SenhoreS 5 years 2.73 GB3 3
    Jurassic.World.2018.HDRip.XviD.AC3-EVO by xxxlavalxxx 2 years 1.39 GB83 8

    Torrent Hash: 096FF47D707F789063A3C5333EC0B84812CB08AB


    Num Trackers: 8 trackers




    TRACKER'S LIST COMPATIBLE WITH BITTORRENT CLIENT


    TrackerSeedersLeechersCompletedUpdated
    http://open.acgtracker.com:1096/announce 0 0 0 2 years
    http://tracker1.wasabii.com.tw:6969/announce 1 0 0 2 years
    http://tracker.mg64.net:6881/announce 3 2 0 2 years
    http://tracker1.itzmx.com:8080/announce 3 0 0 2 years
    http://mgtracker.org:2710/announce 3 1 0 2 years
    http://announce.xxx-tracker.com:2710/announce 12 4 0 2 years
    http://explodie.org:6969/announce 7 2 0 2 years
    udp://tracker.coppersurfer.tk:6969 52 43 0 2 years

    No comments yet.