Mumbai Saga (2021) Hindi 1080p AMZN WEBRip ESub DDP.5.1 x265-Shadow.BonsaiHD

seeders: 6     leechers: 1     updated: 9 months ago

Downloading Seeding from 0 peers
of -
0 b/s / 0 b/s
    Mumbai Saga (2021) Hindi 1080p AMZN WEBRip ESub DDP.5.1 x265-Shadow.BonsaiHD ( 3.92 GB )
    Mumbai.Saga.2021.1080p.AMZN.WEB-DL.DDP5.1.H.265-Telly.mkv3.92 GB




    General
    Unique ID                                : 124311978896149511405913781986999644758 (0x5D859DC33AB4007EDE1AF95898D7B256)
    Complete name                            : Mumbai.Saga.2021.1080p.AMZN.WEB-DL.DDP5.1.H.265-Telly.mkv
    Format                                   : Matroska
    Format version                           : Version 4 / Version 2
    File size                                : 3.92 GiB
    Duration                                 : 2h 5mn
    Overall bit rate                         : 4 461 Kbps
    Movie name                               : Telly
    Encoded date                             : UTC 2021-04-26 19:38:29
    Writing application                      : mkvmerge v31.0.0 ('Dolores In A Shoestand') 64-bit
    Writing library                          : libebml v1.3.6 + libmatroska v1.4.9

    Video
    ID                                       : 1
    Format                                   : HEVC
    Format/Info                              : High Efficiency Video Coding
    Format profile                           : [email protected]@Main
    Codec ID                                 : V_MPEGH/ISO/HEVC
    Duration                                 : 2h 5mn
    Bit rate                                 : 3 819 Kbps
    Width                                    : 1 920 pixels
    Height                                   : 800 pixels
    Display aspect ratio                     : 2.40:1
    Frame rate mode                          : Constant
    Frame rate                               : 24.000 fps
    Standard                                 : NTSC
    Color space                              : YUV
    Chroma subsampling                       : 4:2:0
    Bit depth                                : 8 bits
    Bits/(Pixel*Frame)                       : 0.104
    Stream size                              : 3.35 GiB (86%)
    Default                                  : Yes
    Forced                                   : No
    Color range                              : Limited
    Color primaries                          : BT.709
    Transfer characteristics                 : BT.709
    Matrix coefficients                      : BT.709

    Audio
    ID                                       : 2
    Format                                   : E-AC-3
    Format/Info                              : Audio Coding 3
    Format settings, Endianness              : Big
    Codec ID                                 : A_EAC3
    Duration                                 : 2h 5mn
    Bit rate mode                            : Constant
    Bit rate                                 : 640 Kbps
    Channel(s)                               : 6 channels
    Channel positions                        : Front: L C R, Side: L R, LFE
    Sampling rate                            : 48.0 KHz
    Frame rate                               : 187.500 fps (256 spf)
    Compression mode                         : Lossy
    Stream size                              : 575 MiB (14%)
    Title                                    : Hindi
    Language                                 : Hindi
    Default                                  : Yes
    Forced                                   : No

    Text
    ID                                       : 3
    Format                                   : UTF-8
    Codec ID                                 : S_TEXT/UTF8
    Codec ID/Info                            : UTF-8 Plain Text
    Duration                                 : 1h 59mn
    Bit rate                                 : 43 bps
    Count of elements                        : 1300
    Stream size                              : 37.9 KiB (0%)
    Title                                    : English
    Language                                 : English
    Default                                  : No
    Forced                                   : No











    SIMILAR

    TORRENT   UPLOADEDSIZESEEDS LEECHS
    Mumbai Saga (2021) Hindi 1080p AMZN WEB-DL ESub DDP-5.1 x264-Shadow.BonsaiHD by kayl1337 9 months 8.35 GB3 0
    Mumbai.Saga.2021.2160p.SDR.AMZN.WEB-DL.DDP.5.1.H.265-Shadow by kayl1337 9 months 9.38 GB3 1
    Mumbai Saga (2021) Hindi 720p HD Camrip - NO LOGO - 1.2 GB - x264 AAC- Shadow.BonsaiHD by kayl1337 11 months 1.23 GB724 98
    Vinland Saga (Season 1) (1080p)(HEVC x265 10bit)(Multi-Subs)-Jud by sotnikam 2 years 8.14 GB64 24
    Mumbai Saga (2021) Hindi 720p AMZN WEBRip ESub DD.5.1 x265-Shadow.BonsaiHD by kayl1337 9 months 832.71 MB3 0
    Mumbai Saga (2021) Hindi 720p AMZN WEBRip ESub DD-5.1 x264-Shadow.BonsaiHD by kayl1337 9 months 1.20 GB52 12
    Salaam Mumbai (2017) Hindi [Mp3~320kbps] by kajalsus 5 years 48.19 MB9 2

    Torrent Hash: E45FC9631AB06842756967238A80A5E33894F150


    Num Trackers: 6 trackers




    TRACKER'S LIST COMPATIBLE WITH BITTORRENT CLIENT


    TrackerSeedersLeechersCompletedUpdated
    udp://tracker.coppersurfer.tk:6969 0 0 0 9 months
    http://open.acgtracker.com:1096/announce 1 0 0 9 months
    http://bt2.archive.org:6969/announce 3 0 0 9 months
    http://sugoi.pomf.se/announce 6 1 0 9 months
    http://tracker.pomf.se/announce 4 0 0 9 months
    http://bt1.archive.org:6969/announce 3 0 0 9 months

    No comments yet.