Night Hunter 2019 1080p WEB-DL DD 5.1 x264 [MW]

seeders: 10     leechers: 0     updated: 1 year ago

Downloading Seeding from 0 peers
of -
0 b/s / 0 b/s
    • Nomis (2018)
    • 5.8 / 10 (3 624 votes)
    • Action, Thriller
    • IMDb: 6533240
    • Audio Language: Inglês
    • Video Quality: 1080p
    Night Hunter 2019 1080p WEB-DL DD 5.1 x264 [MW] ( 1.74 GB )
    Night Hunter 2019 1080p WEB-DL DD 5.1 x264 [MW].mkv1.74 GB





    General
    Format                                   : Matroska
    Format version                           : Version 4
    File size                                : 1.74 GiB
    Duration                                 : 1 h 38 min
    Overall bit rate                         : 2 524 kb/s

    Video
    ID                                       : 1
    Format                                   : AVC
    Format/Info                              : Advanced Video Codec
    Format profile                           : [email protected]
    Format settings                          : CABAC / 4 Ref Frames
    Format settings, CABAC                   : Yes
    Format settings, Reference frames        : 4 frames
    Codec ID                                 : V_MPEG4/ISO/AVC
    Duration                                 : 1 h 38 min
    Bit rate                                 : 2 200 kb/s
    Width                                    : 1 920 pixels
    Height                                   : 804 pixels
    Display aspect ratio                     : 2.40:1
    Frame rate mode                          : Constant
    Frame rate                               : 23.976 (24000/1001) FPS
    Color space                              : YUV
    Chroma subsampling                       : 4:2:0
    Bit depth                                : 8 bits
    Scan type                                : Progressive
    Bits/(Pixel*Frame)                       : 0.059
    Stream size                              : 1.48 GiB (85%)
    Writing library                          : x264 core 157 r2935 545de2f

    Audio
    ID                                       : 2
    Format                                   : AC-3
    Format/Info                              : Audio Coding 3
    Commercial name                          : Dolby Digital
    Codec ID                                 : A_AC3
    Duration                                 : 1 h 38 min
    Bit rate mode                            : Constant
    Bit rate                                 : 384 kb/s
    Channel(s)                               : 6 channels
    Channel layout                           : L R C LFE Ls Rs
    Sampling rate                            : 48.0 kHz
    Frame rate                               : 31.250 FPS (1536 SPF)
    Bit depth                                : 16 bits
    Compression mode                         : Lossy
    Stream size                              : 271 MiB (15%)
    Language                                 : English
    Service kind                             : Complete Main
    Default                                  : Yes
    Forced                                   : No


    Click To View Image

    https://pichub.site/image/hObNs
    https://pichub.site/image/hOWVR
    https://pichub.site/image/hOe1B
    https://pichub.site/image/hOqRY
    https://pichub.site/image/hR4B6
    https://pichub.site/image/hRfPt




    SIMILAR

    TORRENT   UPLOADEDSIZESEEDS LEECHS
    311 - MOSAIC (2017) Mp3 320kbps [WR Music] by kajalsus 3 years 150.03 MB43 4
    Hey Violet - From The Outside (2017) Mp3 320kbps by kajalsus 3 years 96.88 MB30 7
    VA - Bravo Hits Lato 2CD (2017) Mp3 320kbps [WR Music] by kajalsus 3 years 312.13 MB39 1
    Sara Evans - Words (2017) (Mp3 320kbps) [Hunter] {786zx} by kajalsus 3 years 121.21 MB39 1
    Evil Hunter - Evil Hunter 2018 ak by analogkid6103 2 years 88.98 MB2 0
    RuPaul - Essential Vol 2 (2017) Mp3 320kbps [WR Music] by kajalsus 3 years 179.35 MB14 0
    Hunter x Hunter (2011) (Complete Series + Movies) (BD 1080p)(HEV by sotnikam 5 months 28.77 GB18 40

    Torrent Hash: A73E239A9A00696CA9D05F98655EBF9D4CECCC24


    Num Trackers: 10 trackers




    TRACKER'S LIST COMPATIBLE WITH BITTORRENT CLIENT


    TrackerSeedersLeechersCompletedUpdated
    udp://tracker.leechers-paradise.org:6969/announce 10 0 0 1 year
    udp://tracker.coppersurfer.tk:6969/announce 8 1 0 1 year
    udp://explodie.org:6969/announce 6 0 0 1 year
    udp://retracker.lanta-net.ru:2710/announce 3 0 0 1 year
    udp://tracker.moeking.me:6969/announce 2 0 0 1 year
    udp://bt.xxxtracker.unblockninja.info:2710/announce 3 0 0 1 year
    udp://tracker.internetwarriors.net:1337/announce 5 1 0 1 year
    udp://denis.stalker.upeer.me:6969/announce 2 0 0 1 year
    udp://torrentclub.tech:6969/announce 2 0 0 1 year
    udp://open.demonii.si:1337/announce 2 0 0 1 year

    No comments yet.