Ode to Joy 2019 1080p WEB-DL DD 5.1 x264 [MW]

seeders: 8     leechers: 3     updated: 1 year ago

Downloading Seeding from 0 peers
of -
0 b/s / 0 b/s
    Ode to Joy 2019 1080p WEB-DL DD 5.1 x264 [MW] ( 1.68 GB )
    Ode to Joy 2019 1080p WEB-DL DD 5.1 x264 [MW].mkv1.68 GB





    General
    Format                                   : Matroska
    Format version                           : Version 4
    File size                                : 1.68 GiB
    Duration                                 : 1 h 37 min
    Overall bit rate                         : 2 462 kb/s

    Video
    ID                                       : 1
    Format                                   : AVC
    Format/Info                              : Advanced Video Codec
    Format profile                           : [email protected]
    Format settings                          : CABAC / 4 Ref Frames
    Format settings, CABAC                   : Yes
    Format settings, Reference frames        : 4 frames
    Codec ID                                 : V_MPEG4/ISO/AVC
    Duration                                 : 1 h 37 min
    Bit rate                                 : 2 100 kb/s
    Width                                    : 1 920 pixels
    Height                                   : 790 pixels
    Display aspect ratio                     : 2.40:1
    Frame rate mode                          : Constant
    Frame rate                               : 23.976 (24000/1001) FPS
    Color space                              : YUV
    Chroma subsampling                       : 4:2:0
    Bit depth                                : 8 bits
    Scan type                                : Progressive
    Bits/(Pixel*Frame)                       : 0.058
    Stream size                              : 1.42 GiB (84%)
    Writing library                          : x264 core 157 r2935 545de2f

    Audio
    ID                                       : 2
    Format                                   : AC-3
    Format/Info                              : Audio Coding 3
    Commercial name                          : Dolby Digital
    Codec ID                                 : A_AC3
    Duration                                 : 1 h 37 min
    Bit rate mode                            : Constant
    Bit rate                                 : 384 kb/s
    Channel(s)                               : 6 channels
    Channel layout                           : L R C LFE Ls Rs
    Sampling rate                            : 48.0 kHz
    Frame rate                               : 31.250 FPS (1536 SPF)
    Bit depth                                : 16 bits
    Compression mode                         : Lossy
    Stream size                              : 268 MiB (16%)
    Language                                 : English
    Service kind                             : Complete Main
    Default                                  : Yes
    Forced                                   : No

    Text
    ID                                       : 3
    Format                                   : UTF-8
    Codec ID                                 : S_TEXT/UTF8
    Codec ID/Info                            : UTF-8 Plain Text
    Duration                                 : 1 h 36 min
    Bit rate                                 : 89 b/s
    Count of elements                        : 2054
    Stream size                              : 63.5 KiB (0%)
    Language                                 : English
    Default                                  : Yes
    Forced                                   : No


    Click To View Image

    https://pichub.site/image/hMmmt
    https://pichub.site/image/hMUzy
    https://pichub.site/image/hMNYp
    https://pichub.site/image/hMxj0
    https://pichub.site/image/hMv2b
    https://pichub.site/image/hMLwV




    SIMILAR

    TORRENT   UPLOADEDSIZESEEDS LEECHS
    H.E.R. - I Used To Know Her (2019) Mp3 (320kbps) [Hunter] by kajalsus 1 year 171.15 MB73 5
    NF - The Search (2019) Mp3 (320 kbps) [Hunter] by kajalsus 1 year 176.01 MB101 9
    Korn - The Nothing (2019) Mp3 (320kbps) [Hunter] by kajalsus 1 year 111.33 MB230 26
    David Bowie - Space Oddity (Tony Visconti 2019 Mix) (2019) by Freak0370 11 months 113.82 MB106 18
    Wilco - Ode to Joy (2019) Mp3 (320kbps) [Hunter] by kajalsus 1 year 98.55 MB45 2
    Chance the Rapper - The Big Day (2019) Mp3 (320 kbps) [Hunter] by kajalsus 1 year 208.52 MB50 6
    Yes - Yes 50 Live (2019) [320 KBPS] by Freak0370 1 year 263.80 MB35 4

    Torrent Hash: 0CD2E1B4C68B6180F8FD23306A0A5C740FD44EB3


    Num Trackers: 6 trackers




    TRACKER'S LIST COMPATIBLE WITH BITTORRENT CLIENT


    TrackerSeedersLeechersCompletedUpdated
    udp://tracker.leechers-paradise.org:6969/announce 8 3 0 1 year
    udp://tracker.coppersurfer.tk:6969/announce 6 5 0 1 year
    udp://explodie.org:6969/announce 2 0 0 1 year
    udp://open.demonii.si:1337/announce 0 1 0 1 year
    udp://tracker.internetwarriors.net:1337/announce 1 0 0 1 year
    udp://tracker.uw0.xyz:6969/announce 0 1 0 1 year

    No comments yet.