Otherhood 2019 1080p WEBRip DD 5.1 x264 [MW]

seeders: 4     leechers: 3     updated: 1 year ago

Downloading Seeding from 0 peers
of -
0 b/s / 0 b/s
    • Otherhood (2019)
    • 6 / 10 (6 350 votes)
    • Comedy
    • IMDb: 4180560
    • Audio Language: Inglês
    • Subtitle Language: Inglês
    • Video Quality: 1080p
    Otherhood 2019 1080p WEBRip DD 5.1 x264 [MW] ( 1.79 GB )
    Otherhood 2019 1080p WEBRip DD 5.1 x264 [MW].mkv1.79 GB





    General
    Format                                   : Matroska
    Format version                           : Version 4
    File size                                : 1.79 GiB
    Duration                                 : 1 h 40 min
    Overall bit rate                         : 2 548 kb/s

    Video
    ID                                       : 1
    Format                                   : AVC
    Format/Info                              : Advanced Video Codec
    Format profile                           : [email protected]
    Format settings                          : CABAC / 4 Ref Frames
    Format settings, CABAC                   : Yes
    Format settings, Reference frames        : 4 frames
    Codec ID                                 : V_MPEG4/ISO/AVC
    Duration                                 : 1 h 40 min
    Bit rate                                 : 2 200 kb/s
    Width                                    : 1 920 pixels
    Height                                   : 1 040 pixels
    Display aspect ratio                     : 1.85:1
    Frame rate mode                          : Constant
    Frame rate                               : 23.976 (24000/1001) FPS
    Color space                              : YUV
    Chroma subsampling                       : 4:2:0
    Bit depth                                : 8 bits
    Scan type                                : Progressive
    Bits/(Pixel*Frame)                       : 0.046
    Stream size                              : 1.52 GiB (85%)
    Writing library                          : x264 core 157 r2935 545de2f

    Audio
    ID                                       : 2
    Format                                   : AC-3
    Format/Info                              : Audio Coding 3
    Commercial name                          : Dolby Digital
    Codec ID                                 : A_AC3
    Duration                                 : 1 h 40 min
    Bit rate mode                            : Constant
    Bit rate                                 : 384 kb/s
    Channel(s)                               : 6 channels
    Channel layout                           : L R C LFE Ls Rs
    Sampling rate                            : 48.0 kHz
    Frame rate                               : 31.250 FPS (1536 SPF)
    Bit depth                                : 16 bits
    Compression mode                         : Lossy
    Stream size                              : 276 MiB (15%)
    Language                                 : English
    Service kind                             : Complete Main
    Default                                  : Yes
    Forced                                   : No

    Text #1
    ID                                       : 3
    Format                                   : UTF-8
    Codec ID                                 : S_TEXT/UTF8
    Codec ID/Info                            : UTF-8 Plain Text
    Duration                                 : 1 h 38 min
    Bit rate                                 : 92 b/s
    Count of elements                        : 1893
    Stream size                              : 66.6 KiB (0%)
    Title                                    : English
    Language                                 : English
    Default                                  : No
    Forced                                   : No

    Text #2
    ID                                       : 4
    Format                                   : UTF-8
    Codec ID                                 : S_TEXT/UTF8
    Codec ID/Info                            : UTF-8 Plain Text
    Duration                                 : 1 h 37 min
    Bit rate                                 : 75 b/s
    Count of elements                        : 1739
    Stream size                              : 54.0 KiB (0%)
    Title                                    : English
    Language                                 : English
    Default                                  : No
    Forced                                   : No


    Click To View Image

    https://pichub.site/image/CHrv9
    https://pichub.site/image/CHoHu
    https://pichub.site/image/CH2DR
    https://pichub.site/image/CH5gs
    https://pichub.site/image/CHPYY
    https://pichub.site/image/CHlnB




    SIMILAR

    TORRENT   UPLOADEDSIZESEEDS LEECHS
    Otherhood.2019.HDRip.XviD.AC3-EVO by xxxlavalxxx 1 year 1.39 GB34 3
    Otherhood.2019.HDRip.XviD.AC3-EVO[TGx] by sotnikam 1 year 1.39 GB3 1
    Otherhood.2019.HDRip.XviD.AC3.LLG by LifeLongg 11 months 1.15 GB0 0
    Otherhood.2019.1080p.NF.WEB-DL.DDP5.1.H264-CMRG[TGx] by sotnikam 1 year 4.03 GB22 2
    Otherhood.2019.1080p.NF.WEB-DL.DDP5.1.H264-CMRG[EtHD] by EtHD 1 year 4.03 GB1 0
    Otherhood (2019) 720p WEBRip x264 - YIFY by YIFY 1 year 801.97 MB362 84
    Otherhood (2019) 1080p WEBRip x264 - YIFY by YIFY 1 year 1.66 GB171 59

    Torrent Hash: F52DA5F4D21C0AA6185DCF6120202AC84C1007BA


    Num Trackers: 10 trackers




    TRACKER'S LIST COMPATIBLE WITH BITTORRENT CLIENT


    TrackerSeedersLeechersCompletedUpdated
    udp://tracker.coppersurfer.tk:6969/announce 4 3 0 1 year
    udp://tracker.moeking.me:6969/announce 2 0 0 1 year
    udp://tracker.internetwarriors.net:1337/announce 3 2 0 1 year
    udp://explodie.org:6969/announce 1 2 0 1 year
    udp://retracker.baikal-telecom.net:2710/announce 2 0 0 1 year
    udp://open.demonii.si:1337/announce 2 0 0 1 year
    udp://tracker.filepit.to:6969/announce 1 0 0 1 year
    udp://tracker.nyaa.uk:6969/announce 1 0 0 1 year
    udp://tracker.uw0.xyz:6969/announce 2 0 0 1 year
    udp://retracker.lanta-net.ru:2710/announce 1 0 0 1 year

    No comments yet.