Prem Tame (2021) Bengali 720p Hoichoi WEBRip AAC 2.0 ESub x264-Shadow.BonsaiHD

seeders: 4     leechers: 0     updated: 9 months ago

Downloading Seeding from 0 peers
of -
0 b/s / 0 b/s
    Prem Tame (2021) Bengali 720p Hoichoi WEBRip AAC 2.0 ESub x264-Shadow.BonsaiHD ( 1.15 GB )
    Prem Tame (2021) Bengali 720p Hoichoi WEBRip AAC 2.0 ESub x264-Shadow.BonsaiHD.mkv1.15 GB




    General
    Unique ID                                : 28813793041868234870225754243295596741 (0x15AD55ADCA2CBBAD5343A64B6E43D0C5)
    Complete name                            : Prem Tame (2021) Bengali 720p Hoichoi WEBRip AAC 2.0 ESub x264-Shadow.BonsaiHD.mkv
    Format                                   : Matroska
    Format version                           : Version 4
    File size                                : 1.15 GiB
    Duration                                 : 2 h 8 min
    Overall bit rate                         : 1 287 kb/s
    Movie name                               : shadow
    Encoded date                             : UTC 2021-04-09 09:12:24
    Writing application                      : mkvmerge v51.0.0 ('I Wish') 64-bit
    Writing library                          : libebml v1.4.0 + libmatroska v1.6.2

    Video
    ID                                       : 1
    Format                                   : AVC
    Format/Info                              : Advanced Video Codec
    Format profile                           : [email protected]
    Format settings                          : CABAC / 4 Ref Frames
    Format settings, CABAC                   : Yes
    Format settings, Reference frames        : 4 frames
    Codec ID                                 : V_MPEG4/ISO/AVC
    Duration                                 : 2 h 8 min
    Bit rate                                 : 1 158 kb/s
    Width                                    : 1 280 pixels
    Height                                   : 536 pixels
    Display aspect ratio                     : 2.40:1
    Frame rate mode                          : Constant
    Frame rate                               : 24.000 FPS
    Color space                              : YUV
    Chroma subsampling                       : 4:2:0
    Bit depth                                : 8 bits
    Scan type                                : Progressive
    Bits/(Pixel*Frame)                       : 0.070
    Stream size                              : 1.04 GiB (90%)
    Title                                    : Prem Tame (2021)
    Writing library                          : x264 core 157 r2935 545de2f
    Encoding settings                        : cabac=1 / ref=2 / deblock=1:-1:-1 / analyse=0x3:0x113 / me=hex / subme=6 / psy=1 / psy_rd=1.00:0.15 / mixed_ref=1 / me_range=16 / chroma_me=1 / trellis=1 / 8x8dct=1 / cqm=0 / deadzone=21,11 / fast_pskip=1 / chroma_qp_offset=-3 / threads=6 / lookahead_threads=1 / sliced_threads=0 / nr=0 / decimate=1 / interlaced=0 / bluray_compat=0 / constrained_intra=0 / bframes=3 / b_pyramid=2 / b_adapt=1 / b_bias=0 / direct=1 / weightb=1 / open_gop=0 / weightp=1 / keyint=240 / keyint_min=24 / scenecut=40 / intra_refresh=0 / rc_lookahead=30 / rc=crf / mbtree=1 / crf=22.0 / qcomp=0.60 / qpmin=0 / qpmax=69 / qpstep=4 / vbv_maxrate=25000 / vbv_bufsize=31250 / crf_max=0.0 / nal_hrd=none / filler=0 / ip_ratio=1.40 / aq=1:1.00
    Default                                  : Yes
    Forced                                   : No
    Color range                              : Limited
    Color primaries                          : BT.709
    Transfer characteristics                 : BT.709
    Matrix coefficients                      : BT.709

    Audio
    ID                                       : 2
    Format                                   : AAC LC
    Format/Info                              : Advanced Audio Codec Low Complexity
    Codec ID                                 : A_AAC-2
    Duration                                 : 2 h 8 min
    Bit rate                                 : 127 kb/s
    Channel(s)                               : 2 channels
    Channel layout                           : L R
    Sampling rate                            : 48.0 kHz
    Frame rate                               : 46.875 FPS (1024 SPF)
    Compression mode                         : Lossy
    Delay relative to video                  : -54 ms
    Stream size                              : 117 MiB (10%)
    Title                                    : Stereo
    Language                                 : English
    Default                                  : Yes
    Forced                                   : No

    Text
    ID                                       : 3
    Format                                   : ASS
    Codec ID                                 : S_TEXT/ASS
    Codec ID/Info                            : Advanced Sub Station Alpha
    Duration                                 : 2 h 0 min
    Bit rate                                 : 90 b/s
    Count of elements                        : 1568
    Compression mode                         : Lossless
    Stream size                              : 80.2 KiB (0%)
    Title                                    : Shadow
    Language                                 : English
    Default                                  : Yes
    Forced                                   : Yes











    SIMILAR

    TORRENT   UPLOADEDSIZESEEDS LEECHS
    Toilet - Ek Prem Katha (2017) Hindi (Mp3 320kbps) [Hunter] by kajalsus 4 years 38.31 MB77 6
    Toilet Ek Prem Katha.2017.HQ.1080p.x264.THD.5.1-DTOne by SaM 4 years 14.94 GB0 0
    Toilet.Ek.Prem.Katha.2017.BluRay.1080p.TrueHD5.1.x264-MTeam[E... by EtHD 4 years 15.67 GB14 20
    Toilet.Ek.Prem.Katha.2017.BluRay.720p.DD5.1.x264-MTeam[EtHD] by EtHD 4 years 5.99 GB27 35
    [LBGirlFriends] Prem - Interview & Amateur BJ (27.05.2017) by KayWily 5 years 417.60 MB11 0
    This blonde is your girl next door that wants to let you tame he by NewPornUp 5 years 179.99 MB3 0
    Calmfidence - How to Trust Yourself, Tame Your Inner Critic, and by spy1984 3 months 1.51 MB45 0

    Torrent Hash: 67DADDDA2E4D5BBF1D7C373FE2BD4E0CF65F23BF


    Num Trackers: 5 trackers




    TRACKER'S LIST COMPATIBLE WITH BITTORRENT CLIENT


    TrackerSeedersLeechersCompletedUpdated
    http://bt2.archive.org:6969/announce 4 0 0 9 months
    http://bt1.archive.org:6969/announce 2 1 0 9 months
    udp://tracker.coppersurfer.tk:6969 0 0 0 9 months
    http://sugoi.pomf.se/announce 0 0 0 9 months
    http://tracker.pomf.se/announce 2 2 0 9 months

    No comments yet.