Sherni (2021) Hindi 720p Amzn WEBRip x264 AAC ESub-Shadow

seeders: 13     leechers: 1     updated: 7 months ago

Downloading Seeding from 0 peers
of -
0 b/s / 0 b/s
    Sherni (2021) Hindi 720p Amzn WEBRip x264 AAC ESub-Shadow ( 1.54 GB )
    Sherni (2021) Hindi 720p Amzn WEBRip x264 AAC ESub-Shadow.mkv1.54 GB




    General
    Unique ID                                : 116193731377413937998138774139225104037 (0x576A1941D8A7369B69BCD6AFB4FDDEA5)
    Complete name                            : D:\movies\Sherni (2021) Hindi 720p Amzn WEBRip x264 AAC ESub-Shadow\Sherni (2021) Hindi 720p Amzn WEBRip x264 AAC ESub-Shadow.mkv
    Format                                   : Matroska
    Format version                           : Version 4
    File size                                : 1.54 GiB
    Duration                                 : 2 h 10 min
    Overall bit rate                         : 1 692 kb/s
    Movie name                               : Sherni (2021) Hindi 720p Amzn WEBRip x264 AAC ESub-Shadow
    Encoded date                             : UTC 2021-06-17 17:33:55
    Writing application                      : mkvmerge v51.0.0 ('I Wish') 64-bit
    Writing library                          : libebml v1.4.0 + libmatroska v1.6.2

    Video
    ID                                       : 1
    Format                                   : AVC
    Format/Info                              : Advanced Video Codec
    Format profile                           : [email protected]
    Format settings                          : CABAC / 4 Ref Frames
    Format settings, CABAC                   : Yes
    Format settings, Reference frames        : 4 frames
    Codec ID                                 : V_MPEG4/ISO/AVC
    Duration                                 : 2 h 10 min
    Bit rate                                 : 1 561 kb/s
    Width                                    : 1 280 pixels
    Height                                   : 528 pixels
    Display aspect ratio                     : 2.40:1
    Original display aspect ratio            : 2.40:1
    Frame rate mode                          : Constant
    Frame rate                               : 24.000 FPS
    Color space                              : YUV
    Chroma subsampling                       : 4:2:0
    Bit depth                                : 8 bits
    Scan type                                : Progressive
    Bits/(Pixel*Frame)                       : 0.096
    Stream size                              : 1.43 GiB (92%)
    Title                                    : Sherni (2021) Hindi 720p Amzn WEBRip x264 AAC ESub-Shadow
    Default                                  : Yes
    Forced                                   : No

    Audio
    ID                                       : 2
    Format                                   : AAC LC
    Format/Info                              : Advanced Audio Codec Low Complexity
    Codec ID                                 : A_AAC-2
    Duration                                 : 2 h 10 min
    Bit rate                                 : 128 kb/s
    Channel(s)                               : 2 channels
    Channel layout                           : L R
    Sampling rate                            : 48.0 kHz
    Frame rate                               : 46.875 FPS (1024 SPF)
    Compression mode                         : Lossy
    Stream size                              : 120 MiB (8%)
    Language                                 : Hindi
    Default                                  : Yes
    Forced                                   : No

    Text
    ID                                       : 3
    Format                                   : UTF-8
    Codec ID                                 : S_TEXT/UTF8
    Codec ID/Info                            : UTF-8 Plain Text
    Duration                                 : 2 h 4 min
    Bit rate                                 : 53 b/s
    Count of elements                        : 1436
    Stream size                              : 48.4 KiB (0%)
    Default                                  : Yes
    Forced                                   : No










    SIMILAR

    TORRENT   UPLOADEDSIZESEEDS LEECHS
    Sherni (2021) - Hindi - HDRip - 1080p - HEVC - x265 - 1.3GB - ES by sotnikam 4 months 1.31 GB1 0
    Formula 1 - F1 Season 2021 - Mp4 x264 AC3 1080p50 by Truth4U 1 month 132.36 GB1 0
    Finch.2021.HDRip.XviD.AC3-EVO by xxxlavalxxx 2 months 1.36 GB75 80
    Whitesnake - Restless Heart (25th Anniversary Edition) [2021 Remix] (2021) Mp3 320kbps [PMEDIA] ⭐️ by pmedia 3 months 175.89 MB65 1
    [indie-rock] (2021) The National - Sad Songs for Dirty Lovers ( Remaster) [FLAC] [DarkAngie] by DarkAngie 7 months 278.23 MB20 1
    [indie-rock] (2021) The Shins - Oh, Inverted World [20Th Anniversary Remastered] [FLAC] [DarkAngie] by DarkAngie 8 months 201.72 MB5 0
    [acoustic, pop, world] (2021) Céu – Acustico + Um Gosto De Sol [FLAC] [DarkAngie] by DarkAngie 3 weeks 528.33 MB4 0

    Torrent Hash: 16347D407845499243A7C8DBFFA7A000AF2F17A4


    Num Trackers: 6 trackers




    TRACKER'S LIST COMPATIBLE WITH BITTORRENT CLIENT


    TrackerSeedersLeechersCompletedUpdated
    udp://tracker.coppersurfer.tk:6969 0 0 0 7 months
    http://open.acgtracker.com:1096/announce 1 0 0 7 months
    http://tracker.pomf.se/announce 7 1 0 7 months
    http://bt1.archive.org:6969/announce 9 0 0 7 months
    http://sugoi.pomf.se/announce 10 5 0 7 months
    http://bt2.archive.org:6969/announce 13 1 0 7 months

    No comments yet.