Sibéal - Sibéal (2019) Flac

seeders: 5     leechers: 0     updated: 3 months ago

Downloading Seeding from 0 peers
of -
0 b/s / 0 b/s
    Sibéal - Sibéal (2019) Flac ( 265.56 MB )


    Quality-Lossless
    Release-2019
    Duration-00:48:13
    File Size-278.5 MB
    Genre-Folk
    Cover Size-1200px

    ----------------------------------------------------------------------------------------------
    Analyzed: Sibéal /  Artist: Sibéal
    ----------------------------------------------------------------------------------------------
    DR Peak RMS Duration Title [codec]
    ----------------------------------------------------------------------------------------------
    DR8 -3.88 dB -18.24 dB 1:01 01 - Mise Sibéal [flac]
    DR8 -0.51 dB -12.50 dB 3:52 02 - Mise Éire [flac]
    DR9 -0.51 dB -12.53 dB 3:27 03 - Mná na hÉireann [flac]
    DR8 -0.48 dB -11.41 dB 3:25 04 - An Cailin Alainn [flac]
    DR10 -0.50 dB -11.76 dB 3:54 05 - The Parting Glass [flac]
    DR9 -0.51 dB -13.11 dB 4:21 06 - The First Time Ever I Saw Your Face [flac]
    DR9 -0.52 dB -12.57 dB 4:13 07 - Bonny Portmore [flac]
    DR10 -0.50 dB -13.44 dB 2:39 08 - Blackbird [flac]
    DR10 -0.52 dB -14.19 dB 3:56 09 - The Wind That Shakes The Barley [flac]
    DR9 -0.52 dB -12.89 dB 4:36 10 - Mo Bhrón ar an bhFarraige [flac]
    DR9 -0.49 dB -12.71 dB 3:20 11 - Óró sé do Bheatha 'Bhaile [flac]
    DR8 -0.50 dB -12.31 dB 4:36 12 - Mo Ghile Mear [flac]
    DR10 -0.46 dB -14.52 dB 4:50 13 - He Moved Through The Fair [flac]
    ----------------------------------------------------------------------------------------------
    Number of files:    13
    Official DR value:  DR9

    Sampling rate: 44100 Hz
    Average bitrate: 764kbs
    Bits per sample: 16 bit



    SIMILAR

    TORRENT   UPLOADEDSIZESEEDS LEECHS
    Corto.Maltese.O.Filme.2002.720p.TVRip.DUB.PT-PT.GC_TV.Up-BEAVERY by LiPEH 2 months 813.37 MB0 0
    Pentalogia - Os Cavaleiros do Zodíaco (1987-2006) 1080p 5 1 Dublado - Douglasvip by captain_flint 6 years 4.06 GB2 0

    Torrent Hash: 2367B7F91588335D0AB15CBA9FF65A02E4FC2567


    Num Trackers: 5 trackers




    TRACKER'S LIST COMPATIBLE WITH BITTORRENT CLIENT


    TrackerSeedersLeechersCompletedUpdated
    udp://tracker.leechers-paradise.org:6969/announce 3 3 0 3 months
    udp://tracker.coppersurfer.tk:6969/announce 5 0 0 3 months
    udp://tracker.internetwarriors.net:1337/announce 0 1 0 3 months
    udp://open.demonii.si:1337/announce 4 0 0 3 months
    udp://explodie.org:6969/announce 2 0 0 3 months

    No comments yet.