Skillet - Victorious (2019) [24bit Hi-Res]

seeders: 7     leechers: 3     updated: 8 months ago

Downloading Seeding from 0 peers
of -
0 b/s / 0 b/s
    Skillet - Victorious (2019) [24bit Hi-Res] ( 1.00 GB )


    Quality-Lossless
    Release-2019
    Duration-00:44:52
    File Size-1.07 GB
    Genre-Rock
    Cover Size-1425px

    ----------------------------------------------------------------------------------------------
    Analyzed: Victorious /  Artist: Skillet
    ----------------------------------------------------------------------------------------------
    DR Peak RMS Duration Title [codec]
    ----------------------------------------------------------------------------------------------
    DR5 -0.00 dB -7.17 dB 4:04 01 - Legendary [flac]
    DR5 -0.00 dB -6.69 dB 3:16 02 - You Ain't Ready [flac]
    DR5 -0.00 dB -6.98 dB 4:04 03 - Victorious [flac]
    DR4 -0.00 dB -6.17 dB 3:27 04 - This Is the Kingdom [flac]
    DR5 -0.00 dB -7.04 dB 3:43 05 - Save Me [flac]
    DR4 -0.00 dB -5.89 dB 3:58 06 - Rise Up [flac]
    DR4 -0.00 dB -6.02 dB 3:45 07 - Terrify the Dark [flac]
    DR4 -0.00 dB -5.81 dB 3:33 08 - Never Going Back [flac]
    DR4 -0.00 dB -6.22 dB 3:22 09 - Reach [flac]
    DR4 -0.00 dB -7.31 dB 3:35 10 - Anchor [flac]
    DR4 -0.00 dB -7.27 dB 3:25 11 - Finish Line [flac]
    DR4 -0.00 dB -6.05 dB 4:36 12 - Back to Life [flac]
    ----------------------------------------------------------------------------------------------
    Number of files:    12
    Official DR value:  DR4

    Sampling rate: 96000 Hz
    Average bitrate: 3163kbs
    Bits per sample: 24 bit



    SIMILAR

    TORRENT   UPLOADEDSIZESEEDS LEECHS
    30.Minute.Meals.S28E05.Its.Not.Delivery.Its.Cast.Iron.Skillet.Pa by sotnikam 11 months 184.07 MB1 0
    30 Minute Meals S28E05 Its Not Delivery Its Cast Iron Skillet Pan Pizza HDTV x264-W4F EZTV by eztv 11 months 182.07 MB2 2
    Skillet - Unleashed Beyond (Special Edition) (2017) [24bit Hi-Res] by was95 8 months 969.24 MB5 0
    Skillet - Victorious (2019) [320 KBPS] by Freak0370 8 months 104.25 MB86 4
    Skillet - Vital Signs (2014) Flac by was95 8 months 283.67 MB2 0
    Skillet - Awake (2009) [24-96 Hi-Res] by was95 8 months 904.91 MB7 3
    Skillet - Rise (Deluxe Edition) (2013) [24-96 Hi-Res] by was95 8 months 1.26 GB5 2

    Torrent Hash: A02D3F57B902AAC0EC7B0270143BA94F13E88B72


    Num Trackers: 10 trackers




    TRACKER'S LIST COMPATIBLE WITH BITTORRENT CLIENT


    TrackerSeedersLeechersCompletedUpdated
    udp://denis.stalker.upeer.me:6969/announce 1 0 0 8 months
    udp://tracker.leechers-paradise.org:6969/announce 7 3 0 8 months
    udp://open.demonii.si:1337/announce 4 1 0 8 months
    udp://explodie.org:6969/announce 2 1 0 8 months
    udp://bt.xxxtracker.unblockninja.info:2710/announce 1 0 0 8 months
    udp://tracker.moeking.me:6969/announce 1 0 0 8 months
    udp://tracker.internetwarriors.net:1337/announce 1 0 0 8 months
    udp://retracker.lanta-net.ru:2710/announce 1 0 0 8 months
    udp://tracker.coppersurfer.tk:6969/announce 6 4 0 8 months
    udp://torrentclub.tech:6969/announce 1 0 0 8 months

    No comments yet.