Sophie Zelmani - Everywhere (2014)

seeders: 1     leechers: 0     updated: 8 months ago

Downloading Seeding from 0 peers
of -
0 b/s / 0 b/s
    Sophie Zelmani - Everywhere (2014) ( 217.81 MB )


    Quality-Lossless
    Release-2014
    Duration-00:40:42
    File Size-228.4 MB
    Genre-Pop
    Cover Size-1400px

    ----------------------------------------------------------------------------------------------
    Analyzed: Everywhere /  Artist: Sophie Zelmani
    ----------------------------------------------------------------------------------------------
    DR Peak RMS Duration Title [codec]
    ----------------------------------------------------------------------------------------------
    DR10 -0.00 dB -13.57 dB 3:41 01 - By Your Side [flac]
    DR10 -0.00 dB -13.62 dB 2:20 02 - Waiting Room [flac]
    DR10 -0.00 dB -16.42 dB 4:53 03 - Everywhere [flac]
    DR11 -0.01 dB -14.48 dB 3:46 04 - Charlotte By the Shore [flac]
    DR11 -0.00 dB -14.38 dB 3:14 05 - When You Remember [flac]
    DR11 -0.00 dB -13.63 dB 3:22 06 - Got To Go With Love [flac]
    DR10 -0.00 dB -14.33 dB 3:37 07 - I Pray [flac]
    DR10 -0.00 dB -13.06 dB 3:31 08 - Should I Tell You [flac]
    DR12 -0.06 dB -16.09 dB 3:39 09 - The Lord [flac]
    DR13 -0.02 dB -16.11 dB 2:02 10 - My Dear [flac]
    DR13 -0.02 dB -15.87 dB 5:00 11 - Do You Think It Could Wait [flac]
    DR10 -0.10 dB -16.56 dB 1:34 12 - Forgiveness [flac]
    ----------------------------------------------------------------------------------------------
    Number of files:    12
    Official DR value:  DR11

    Sampling rate: 44100 Hz
    Average bitrate: 739kbs
    Bits per sample: 16 bit



    SIMILAR

    TORRENT   UPLOADEDSIZESEEDS LEECHS
    Sophie Zelmani - Sing and Dance (2001) Flac-was95 by was95 8 months 242.46 MB2 0
    Sophie Zelmani - Love Affair (2003) Flac-was95 by was95 8 months 239.66 MB7 0
    Sophie Zelmani - Sophie Zelmani (1995) Flac by was95 10 months 274.24 MB1 0
    Sophie Zelmani - Sunrise (2019) Flac by was95 1 year 189.06 MB5 0
    SOPHIE - Oil of Every Pearl's Un-Insides (2018) Mp3 (320kbps) by kajalsus 1 year 96.75 MB0 1
    [JacquieEtMichelTV]Sophie.-.Sophie.se.regale.! by TKTh3K1ng 3 years 380.34 MB2 1
    Sophie Zelmani - Memory Loves You (2007) Flac-was95 by was95 8 months 204.32 MB2 0

    Torrent Hash: 45EE1F387CEEB0D439E7B3F81536BDD4EC17E3B2


    Num Trackers: 5 trackers




    TRACKER'S LIST COMPATIBLE WITH BITTORRENT CLIENT


    TrackerSeedersLeechersCompletedUpdated
    udp://tracker.leechers-paradise.org:6969/announce 0 2 0 8 months
    udp://tracker.coppersurfer.tk:6969/announce 0 1 0 8 months
    udp://explodie.org:6969/announce 0 1 0 8 months
    udp://open.demonii.si:1337/announce 0 1 0 8 months
    udp://tracker.internetwarriors.net:1337/announce 1 0 0 8 months

    No comments yet.