Sophie Zelmani - Memory Loves You (2007) Flac-was95

seeders: 2     leechers: 0     updated: 1 week ago

Downloading Seeding from 0 peers
of -
0 b/s / 0 b/s

Warning! Use a VPN When Downloading Torrents.


Your IP Address is 18.206.48.142 Location is US.
Hide your IP ADDRESS with a VPN!

Get VPN App Mac Now!


    Sophie Zelmani - Memory Loves You (2007) Flac-was95 ( 204.32 MB )


    Quality-Lossless
    Release-2007
    Duration-00:36:16
    File Size-214 MB
    Genre-Pop
    Cover Size-1400px

    ----------------------------------------------------------------------------------------------
    Analyzed: Memory Loves You /  Artist: Sophie Zelmani
    ----------------------------------------------------------------------------------------------
    DR Peak RMS Duration Title [codec]
    ----------------------------------------------------------------------------------------------
    DR9 -0.10 dB -11.98 dB 3:10 01 - Wait for cry [flac]
    DR9 -0.10 dB -11.28 dB 2:58 02 - Memory loves you [flac]
    DR8 -0.10 dB -10.71 dB 5:13 03 - Broken sunny day [flac]
    DR11 -0.61 dB -15.89 dB 2:54 04 - I got yours [flac]
    DR12 -1.40 dB -18.37 dB 2:16 05 - Sorrow [flac]
    DR10 -0.10 dB -13.82 dB 3:25 06 - How different [flac]
    DR6 -0.10 dB -12.82 dB 3:37 07 - Love on my mind [flac]
    DR8 -0.10 dB -9.98 dB 4:12 08 - Travelling [flac]
    DR11 -0.10 dB -13.07 dB 3:08 09 - Now you know [flac]
    DR11 -0.10 dB -14.08 dB 5:19 10 - Shades [flac]
    ----------------------------------------------------------------------------------------------
    Number of files:    10
    Official DR value:  DR10

    Sampling rate: 44100 Hz
    Average bitrate: 772kbs
    Bits per sample: 16 bit



    SIMILAR

    TORRENT   UPLOADEDSIZESEEDS LEECHS
    Sophie Zelmani - Sing and Dance (2001) Flac-was95 by was95 1 month 242.46 MB2 0
    Sophie Zelmani - Love Affair (2003) Flac-was95 by was95 1 month 239.66 MB7 0
    Sophie Zelmani - Sophie Zelmani (1995) Flac by was95 2 months 274.24 MB1 0
    SOPHIE - Oil of Every Pearl's Un-Insides (2018) Mp3 (320kbps) by kajalsus 1 year 96.75 MB0 1
    Sophie Zelmani - Sunrise (2019) Flac by was95 5 months 189.06 MB5 0
    [JacquieEtMichelTV]Sophie.-.Sophie.se.regale.! by TKTh3K1ng 3 years 380.34 MB2 1
    Sophie Zelmani - Everywhere (2014) by was95 1 month 217.81 MB1 0

    Torrent Hash: 1805DD09634406F976970F14B2067C6B6A1203BF


    Num Trackers: 5 trackers




    TRACKER'S LIST COMPATIBLE WITH BITTORRENT CLIENT


    TrackerSeedersLeechersCompletedUpdated
    udp://tracker.pirateparty.gr:6969/announce 1 0 0 1 week
    udp://explodie.org:6969/announce 2 0 0 1 week
    udp://tracker.coppersurfer.tk:6969/announce 1 0 0 1 week
    udp://open.demonii.si:1337/announce 1 0 0 1 week
    udp://tracker.leechers-paradise.org:6969/announce 1 0 0 1 week

    No comments yet.