Stowaway.2021.2160p.NF.WEB-DL.HIN-ENG.DDP.5.1.x265-Shadow.mkv

seeders: 4     leechers: 15     updated: 3 months ago

Downloading Seeding from 0 peers
of -
0 b/s / 0 b/s
    Stowaway.2021.2160p.NF.WEB-DL.HIN-ENG.DDP.5.1.x265-Shadow.mkv ( 13.04 GB )
    Stowaway.2021.2160p.NF.WEB-DL.HIN-ENG.DDP.5.1.x265-Telly.mkv13.04 GB




    General
    Unique ID                                : 205614117637036173685568713900277226210 (0x9AAFD6AF7229DF97FD1B2688F98DDAE2)
    Complete name                            : /data/disk6/bonsaihd/files/downloads/Stowaway.2021.2160p.NF.WEB-DL.HIN-ENG.DDP.5.1.x265-Shadow.mkv/Stowaway.2021.2160p.NF.WEB-DL.HIN-ENG.DDP.5.1.x265-Telly.mkv
    Format                                   : Matroska
    Format version                           : Version 4 / Version 2
    File size                                : 13.0 GiB
    Duration                                 : 1h 57mn
    Overall bit rate                         : 15.9 Mbps
    Movie name                               : Telly
    Encoded date                             : UTC 2021-04-22 18:23:38
    Writing application                      : mkvmerge v56.1.0 ('My Friend') 64-bit
    Writing library                          : libebml v1.4.2 + libmatroska v1.6.4

    Video
    ID                                       : 1
    Format                                   : HEVC
    Format/Info                              : High Efficiency Video Coding
    Format profile                           : [email protected]@Main
    Codec ID                                 : V_MPEGH/ISO/HEVC
    Duration                                 : 1h 57mn
    Bit rate                                 : 14.7 Mbps
    Width                                    : 3 840 pixels
    Height                                   : 2 160 pixels
    Display aspect ratio                     : 16:9
    Frame rate mode                          : Constant
    Frame rate                               : 24.000 fps
    Standard                                 : NTSC
    Color space                              : YUV
    Chroma subsampling                       : 4:2:0
    Bit depth                                : 8 bits
    Bits/(Pixel*Frame)                       : 0.074
    Stream size                              : 12.0 GiB (92%)
    Default                                  : Yes
    Forced                                   : No
    Color range                              : Limited
    Color primaries                          : BT.709
    Transfer characteristics                 : BT.709
    Matrix coefficients                      : BT.709

    Audio #1
    ID                                       : 2
    Format                                   : E-AC-3
    Format/Info                              : Audio Coding 3
    Format settings, Endianness              : Big
    Codec ID                                 : A_EAC3
    Duration                                 : 1h 57mn
    Bit rate mode                            : Constant
    Bit rate                                 : 640 Kbps
    Channel(s)                               : 6 channels
    Channel positions                        : Front: L C R, Side: L R, LFE
    Sampling rate                            : 48.0 KHz
    Frame rate                               : 187.500 fps (256 spf)
    Compression mode                         : Lossy
    Stream size                              : 536 MiB (4%)
    Title                                    : Hindi
    Language                                 : Hindi
    Default                                  : Yes
    Forced                                   : No

    Audio #2
    ID                                       : 3
    Format                                   : E-AC-3
    Format/Info                              : Audio Coding 3
    Format settings, Endianness              : Big
    Codec ID                                 : A_EAC3
    Duration                                 : 1h 57mn
    Bit rate mode                            : Constant
    Bit rate                                 : 640 Kbps
    Channel(s)                               : 6 channels
    Channel positions                        : Front: L C R, Side: L R, LFE
    Sampling rate                            : 48.0 KHz
    Frame rate                               : 187.500 fps (256 spf)
    Compression mode                         : Lossy
    Stream size                              : 536 MiB (4%)
    Title                                    : English
    Language                                 : English
    Default                                  : No
    Forced                                   : No

    Text #1
    ID                                       : 4
    Format                                   : UTF-8
    Codec ID                                 : S_TEXT/UTF8
    Codec ID/Info                            : UTF-8 Plain Text
    Duration                                 : 1h 46mn
    Bit rate                                 : 65 bps
    Count of elements                        : 1150
    Stream size                              : 51.2 KiB (0%)
    Title                                    : English
    Language                                 : English
    Default                                  : No
    Forced                                   : No

    Text #2
    ID                                       : 5
    Format                                   : UTF-8
    Codec ID                                 : S_TEXT/UTF8
    Codec ID/Info                            : UTF-8 Plain Text
    Duration                                 : 1h 46mn
    Bit rate                                 : 65 bps
    Count of elements                        : 1150
    Stream size                              : 51.2 KiB (0%)
    Title                                    : English
    Language                                 : English
    Default                                  : No
    Forced                                   : No










    SIMILAR

    TORRENT   UPLOADEDSIZESEEDS LEECHS
    Stowaway.2021.HDRip.XviD.AC3-EVO by xxxlavalxxx 3 months 1.35 GB117 23
    Stowaway.2021.HDRip.XviD.AC3-EVO[TGx] by sotnikam 3 months 1.35 GB15 4
    Stowaway (2021) [720p] [WEBRip] [YTS.MX] by YIFY 3 months 1.04 GB113 41
    Stowaway (2021) [1080p] [WEBRip] [YTS.MX] by YIFY 3 months 1.93 GB414 110
    Stowaway.2021.1080p.AMZN.WEB-DL.DDP5.1.H.264-CMRG[TGx] by sotnikam 3 months 4.70 GB67 7
    Stowaway.2021.1080p.AMZN.WEB-DL.DDP2.0.H.264-CMRG[TGx] by sotnikam 3 months 4.37 GB166 10
    Stowaway.2021.1080p.WEBRip.1400MB.DD2.0.x264-GalaxyRG by sotnikam 3 months 1.40 GB127 4

    Torrent Hash: 367411D7060CD204BB4DBF148924C66F30C35B8D


    Num Trackers: 6 trackers




    TRACKER'S LIST COMPATIBLE WITH BITTORRENT CLIENT


    TrackerSeedersLeechersCompletedUpdated
    http://sugoi.pomf.se/announce 4 15 0 3 months
    udp://tracker.coppersurfer.tk:6969 0 0 0 3 months
    http://open.acgtracker.com:1096/announce 0 0 0 3 months
    http://tracker.pomf.se/announce 2 9 0 3 months
    http://bt1.archive.org:6969/announce 2 2 0 3 months
    http://bt2.archive.org:6969/announce 3 1 0 3 months

    No comments yet.