THE EMPIRE (2021) Season1 Ep(01-08) 1080p DSNP Web-DL Multi Audio [Hin-Tam-Tel] ESub 3.3GB[Themoviesboss]

seeders: 78     leechers: 10     updated: 3 months ago

Downloading Seeding from 0 peers
of -
0 b/s / 0 b/s
    THE EMPIRE (2021) Season1 Ep(01-08) 1080p DSNP Web-DL Multi Audio [Hin-Tam-Tel] ESub 3.3GB[Themoviesboss] ( 3.34 GB )
    THE EMPIRE (2021) S01 EP01 - Not the King but the Kingmaker.mkv405.75 MB
    THE EMPIRE (2021) S01 EP02 - The Panthers Prowl.mkv422.57 MB
    THE EMPIRE (2021) S01 EP03 - The Separation.mkv521.54 MB
    THE EMPIRE (2021) S01 EP04 - Alliances.mkv445.02 MB
    THE EMPIRE (2021) S01 EP05 - The Roar of the Lion.mkv431.55 MB
    THE EMPIRE (2021) S01 EP06 - Requiem.mkv407.08 MB
    THE EMPIRE (2021) S01 EP07 - Panipat.mkv434.85 MB
    THE EMPIRE (2021) S01 EP08 - The Beginning.mkv352.91 MB

    Visit Our Site
      themoviesboss.com

    firetorrents.org


    Encoded by                               : Harley Quinn



    Movie name :

    THE EMPIRE (2021) Season1 Ep(01-08) 1080p DSNP Web-DL Multi Audio [Hin-Tam-Tel] ESub 3.3GB[Themoviesboss]

    General
    Format : Matroska
    Format version : Version 4
    File size : 406 MiB (each file) 1-8
    Duration : 40 min 33 s
    Overall bit rate : 1 399 kb/s
    Encoded date : UTC 2021-08-27 04:04:27
    Writing application : mkvmerge v60.0.0 ('Are We Copies?') 64-bit
    Writing library : libebml v1.4.2 + libmatroska v1.6.4

    Video
    ID : 1
    Format : AVC
    Format/Info : Advanced Video Codec
    Format profile : [email protected]
    Format settings : CABAC / 4 Ref Frames
    Format settings, CABAC : Yes
    Format settings, Reference frames : 4 frames
    Codec ID : V_MPEG4/ISO/AVC
    Duration : 40 min 33 s
    Bit rate : 1 206 kb/s
    Width : 1 920 pixels
    Height : 1 080 pixels
    Display aspect ratio : 16:9
    Frame rate mode : Constant
    Frame rate : 25.000 FPS
    Color space : YUV
    Chroma subsampling : 4:2:0
    Bit depth : 8 bits
    Scan type : Progressive
    Bits/(Pixel*Frame) : 0.023
    Stream size : 349 MiB (86%)
    Writing library : x264 core 157 r2935 545de2f
    Default : Yes
    Forced : No

    Audio #1
    ID : 2
    Format : AAC LC
    Format/Info : Advanced Audio Codec Low Complexity
    Codec ID : A_AAC-2
    Duration : 40 min 33 s
    Bit rate : 64.5 kb/s
    Channel(s) : 2 channels
    Channel layout : L R
    Sampling rate : 48.0 kHz
    Frame rate : 46.875 FPS (1024 SPF)
    Compression mode : Lossy
    Stream size : 18.7 MiB (5%)
    Language : Tamil
    Default : Yes
    Forced : No

    Audio #2
    ID : 3
    Format : AAC LC
    Format/Info : Advanced Audio Codec Low Complexity
    Codec ID : A_AAC-2
    Duration : 40 min 33 s
    Bit rate : 64.5 kb/s
    Channel(s) : 2 channels
    Channel layout : L R
    Sampling rate : 48.0 kHz
    Frame rate : 46.875 FPS (1024 SPF)
    Compression mode : Lossy
    Stream size : 18.7 MiB (5%)
    Language : Telugu
    Default : No
    Forced : No

    Audio #3
    ID : 4
    Format : AAC LC
    Format/Info : Advanced Audio Codec Low Complexity
    Codec ID : A_AAC-2
    Duration : 40 min 33 s
    Bit rate : 64.5 kb/s
    Channel(s) : 2 channels
    Channel layout : L R
    Sampling rate : 48.0 kHz
    Frame rate : 46.875 FPS (1024 SPF)
    Compression mode : Lossy
    Stream size : 18.7 MiB (5%)
    Language : Hindi
    Default : No
    Forced : No

    Text
    ID : 5
    Format : UTF-8
    Codec ID : S_TEXT/UTF8
    Codec ID/Info : UTF-8 Plain Text
    Duration : 39 min 32 s
    Bit rate : 42 b/s
    Count of elements : 366
    Stream size : 12.3 KiB (0%)
    Language : English
    Default : Yes
    Forced : No

                                           












    SIMILAR

    TORRENT   UPLOADEDSIZESEEDS LEECHS
    Empire Season 5 Complete 720p WEBRip x264 [i_c] by ice_cracked 2 years 10.44 GB11 19
    Empire Season 4 Complete 720p HDTV x264 [i_c] by ice_cracked 3 years 10.74 GB52 47
    THE EMPIRE (2021) S01 EP (01-08) HDRip - 720p - (Hindi + Telugu by sotnikam 3 months 2.07 GB13 3
    Empire of the Sun - Two Vines (2016) [MP3~320Kbps] by kajalsus 5 years 119.94 MB66 2
    KXNG Crooked - Good vs. Evil II The Red Empire (2017) [320kbps] by kajalsus 4 years 117.65 MB14 0
    Empire Cast - Empire: Original Soundtrack, Season 3 (2017) by kajalsus 5 years 113.36 MB74 14
    Empire.2015.S06.COMPLETE.720p.AMZN.WEBRip.x264-GalaxyTV by sotnikam 1 year 6.69 GB22 25

    Torrent Hash: E5772BE02867402173F1D13984C511017977FCE8


    Num Trackers: 15 trackers




    TRACKER'S LIST COMPATIBLE WITH BITTORRENT CLIENT


    TrackerSeedersLeechersCompletedUpdated
    udp://tracker.tiny-vps.com:6969/announce 0 0 0 3 months
    udp://tracker.torrent.eu.org:451/announce 57 4 0 3 months
    udp://tracker.nyaa.uk:6969/announce 0 0 0 3 months
    udp://tracker.coppersurfer.tk:6969/announce 0 0 0 3 months
    udp://tracker.opentrackr.org:1337/announce 78 10 0 3 months
    udp://9.rarbg.com:2880/announce 0 0 0 3 months
    udp://tracker.pirateparty.gr:6969/announce 0 0 0 3 months
    udp://p4p.arenabg.com:1337/announce 65 7 0 3 months
    udp://exodus.desync.com:6969/announce 52 3 0 3 months
    http://pow7.com:80/announce 0 0 0 3 months
    udp://151.80.120.114:2710/announce 0 0 0 3 months
    udp://9.rarbg.to:2960/announce 0 0 0 3 months
    udp://open.stealth.si:80/announce 54 4 0 3 months
    udp://tracker.leechers-paradise.org:6969/announce 0 0 0 3 months
    http://t.nyaatracker.com:80/announce 0 0 0 3 months

    No comments yet.