What.If.2021.S01E09.1080p.WEB.h264-KOGi

seeders: 3     leechers: 25     updated: 1 month ago

Downloading Seeding from 0 peers
of -
0 b/s / 0 b/s
    What.If.2021.S01E09.1080p.WEB.h264-KOGi ( 1.81 GB )
    RARBG.txt0.03 kB
    RARBG_DO_NOT_MIRROR.exe0.10 kB
    What.If.2021.S01E09.1080p.WEB.h264-KOGi.mkv1.81 GB
    what.if.2021.s01e09.1080p.web.h264-kogi.nfo4.84 kB


    Screens... (click to enlarge):







    2021-10-06
    title: What If... The Watcher Broke His Oath?
    source: disneyplus.com
    size: 1.8 GiB
    runtime: 00:33:03.000
    resolution: 1920 x 1080
    bitrate: 7,824 kb/s
    audio: E-AC-3 @ 768 kb/s (5.1) (Dolby Atmos) / English
    subs: English (SDH), Danish, German, Spanish (Latinoamericano), Spanish, Finnish, French
    (Canadien), French, Italian, Japanese, Dutch, Norwegian, Portuguese (Brasil),
    Portuguese, Swedish
    url: https://www.tvmaze.com/shows/41750/what-if

    Infolink -> https://www.imdb.com/title/tt10168312/



    Quote:

    Mediainfo
    Video
    ID : 1
    Format : AVC
    Format/Info : Advanced Video Codec
    Format profile : [email protected]
    Format settings : CABAC / 4 Ref Frames
    Format settings, CABAC : Yes
    Format settings, Reference frames : 4 frames
    Codec ID : V_MPEG4/ISO/AVC
    Duration : 33 min 3 s
    Bit rate mode : Variable
    Bit rate : 7 053 kb/s
    Maximum bit rate : 12.7 Mb/s
    Width : 1 920 pixels
    Height : 1 080 pixels
    Display aspect ratio : 16:9
    Frame rate mode : Constant
    Frame rate : 24.000 FPS
    Color space : YUV
    Chroma subsampling : 4:2:0
    Bit depth : 8 bits
    Scan type : Progressive
    Bits/(Pixel*Frame) : 0.142
    Stream size : 1.63 GiB (90%)
    Language : English
    Default : Yes
    Forced : No
    Color range : Limited
    Color primaries : BT.709
    Transfer characteristics : BT.709
    Matrix coefficients : BT.709

    Audio
    ID : 2
    Format : E-AC-3 JOC
    Format/Info : Enhanced AC-3 with Joint Object Coding
    Commercial name : Dolby Digital Plus with Dolby Atmos
    Codec ID : A_EAC3
    Duration : 33 min 2 s
    Bit rate mode : Constant
    Bit rate : 768 kb/s
    Channel(s) : 6 channels
    Channel layout : L R C LFE Ls Rs
    Sampling rate : 48.0 kHz
    Frame rate : 31.250 FPS (1536 SPF)
    Compression mode : Lossy
    Stream size : 182 MiB (10%)
    Language : English
    Service kind : Complete Main
    Default : Yes
    Forced : No
    Complexity index : 16
    Number of dynamic objects : 15
    Bed channel count : 1 channel
    Bed channel configuration : LFE

    Text #1
    ID : 3
    Format : UTF-8
    Codec ID : S_TEXT/UTF8
    Codec ID/Info : UTF-8 Plain Text
    Duration : 30 min 44 s
    Bit rate : 58 b/s
    Count of elements : 417
    Stream size : 13.3 KiB (0%)
    Title : English (SDH)
    Language : English
    Default : No
    Forced : No

    Text #2
    ID : 4
    Format : UTF-8
    Codec ID : S_TEXT/UTF8
    Codec ID/Info : UTF-8 Plain Text
    Duration : 32 min 19 s
    Bit rate : 47 b/s
    Count of elements : 266
    Stream size : 11.3 KiB (0%)
    Title : Dansk
    Language : Danish
    Default : No
    Forced : No

    Text #3
    ID : 5
    Format : UTF-8
    Codec ID : S_TEXT/UTF8
    Codec ID/Info : UTF-8 Plain Text
    Duration : 32 min 19 s
    Bit rate : 51 b/s
    Count of elements : 379
    Stream size : 12.2 KiB (0%)
    Title : Deutsch
    Language : German
    Default : No
    Forced : No

    Text #4
    ID : 6
    Format : UTF-8
    Codec ID : S_TEXT/UTF8
    Codec ID/Info : UTF-8 Plain Text
    Duration : 32 min 19 s
    Bit rate : 52 b/s
    Count of elements : 334
    Stream size : 12.4 KiB (0%)
    Title : Español (Latinoamericano)
    Language : Spanish
    Default : No
    Forced : No

    Text #5
    ID : 7
    Format : UTF-8
    Codec ID : S_TEXT/UTF8
    Codec ID/Info : UTF-8 Plain Text
    Duration : 32 min 19 s
    Bit rate : 50 b/s
    Count of elements : 336
    Stream size : 11.9 KiB (0%)
    Title : Español
    Language : Spanish
    Default : No
    Forced : No

    Text #6
    ID : 8
    Format : UTF-8
    Codec ID : S_TEXT/UTF8
    Codec ID/Info : UTF-8 Plain Text
    Duration : 32 min 19 s
    Bit rate : 48 b/s
    Count of elements : 335
    Stream size : 11.6 KiB (0%)
    Title : Suomi
    Language : Finnish
    Default : No
    Forced : No

    Text #7
    ID : 9
    Format : UTF-8
    Codec ID : S_TEXT/UTF8
    Codec ID/Info : UTF-8 Plain Text
    Duration : 30 min 44 s
    Bit rate : 50 b/s
    Count of elements : 360
    Stream size : 11.4 KiB (0%)
    Title : Français (Canadien)
    Language : French
    Default : No
    Forced : No

    Text #8
    ID : 10
    Format : UTF-8
    Codec ID : S_TEXT/UTF8
    Codec ID/Info : UTF-8 Plain Text
    Duration : 32 min 19 s
    Bit rate : 48 b/s
    Count of elements : 360
    Stream size : 11.4 KiB (0%)
    Title : Français
    Language : French
    Default : No
    Forced : No

    Text #9
    ID : 11
    Format : UTF-8
    Codec ID : S_TEXT/UTF8
    Codec ID/Info : UTF-8 Plain Text
    Duration : 32 min 19 s
    Bit rate : 51 b/s
    Count of elements : 335
    Stream size : 12.2 KiB (0%)
    Title : Italiano
    Language : Italian
    Default : No
    Forced : No

    Text #10
    ID : 12
    Format : UTF-8
    Codec ID : S_TEXT/UTF8
    Codec ID/Info : UTF-8 Plain Text
    Duration : 32 min 22 s
    Bit rate : 45 b/s
    Count of elements : 340
    Stream size : 10.8 KiB (0%)
    Title : Japanese
    Language : Japanese
    Default : No
    Forced : No

    Text #11
    ID : 13
    Format : UTF-8
    Codec ID : S_TEXT/UTF8
    Codec ID/Info : UTF-8 Plain Text
    Duration : 32 min 19 s
    Bit rate : 49 b/s
    Count of elements : 312
    Stream size : 11.7 KiB (0%)
    Title : Nederlands
    Language : Dutch
    Default : No
    Forced : No

    Text #12
    ID : 14
    Format : UTF-8
    Codec ID : S_TEXT/UTF8
    Codec ID/Info : UTF-8 Plain Text
    Duration : 32 min 19 s
    Bit rate : 48 b/s
    Count of elements : 335
    Stream size : 11.5 KiB (0%)
    Title : Norsk
    Language : Norwegian
    Default : No
    Forced : No

    Text #13
    ID : 15
    Format : UTF-8
    Codec ID : S_TEXT/UTF8
    Codec ID/Info : UTF-8 Plain Text
    Duration : 32 min 19 s
    Bit rate : 53 b/s
    Count of elements : 335
    Stream size : 12.6 KiB (0%)
    Title : Português (Brasil)
    Language : Portuguese
    Default : No
    Forced : No

    Text #14
    ID : 16
    Format : UTF-8
    Codec ID : S_TEXT/UTF8
    Codec ID/Info : UTF-8 Plain Text
    Duration : 32 min 19 s
    Bit rate : 51 b/s
    Count of elements : 335
    Stream size : 12.2 KiB (0%)
    Title : Português
    Language : Portuguese
    Default : No
    Forced : No

    Text #15
    ID : 17
    Format : UTF-8
    Codec ID : S_TEXT/UTF8
    Codec ID/Info : UTF-8 Plain Text
    Duration : 32 min 19 s
    Bit rate : 42 b/s
    Count of elements : 334
    Stream size : 10.0 KiB (0%)
    Title : Svenska
    Language : Swedish
    Default : No
    Forced : No





    SIMILAR

    TORRENT   UPLOADEDSIZESEEDS LEECHS
    Finch.2021.HDRip.XviD.AC3-EVO by xxxlavalxxx 3 weeks 1.36 GB75 80
    Whitesnake - Restless Heart (25th Anniversary Edition) [2021 Remix] (2021) Mp3 320kbps [PMEDIA] ⭐️ by pmedia 1 month 175.89 MB65 1
    THE EMPIRE (2021) Season1 Ep(01-08) 1080p DSNP Web-DL Multi Audio [Hin-Tam-Tel] ESub 3.3GB[Themoviesboss] by Suryadipta 3 months 3.34 GB78 10
    [indie-rock] (2021) The National - Sad Songs for Dirty Lovers ( Remaster) [FLAC] [DarkAngie] by DarkAngie 6 months 278.23 MB20 1
    [indie-rock] (2021) Bailter Space - Wammo (1995, Remastered) [FLAC] [DarkAngie] by DarkAngie 6 months 276.81 MB6 0
    [indie-rock] (2021) The Shins - Oh, Inverted World [20Th Anniversary Remastered] [FLAC] [DarkAngie] by DarkAngie 6 months 201.72 MB5 0
    THE EMPIRE (2021) S01 EP (01-08) HDRip - 720p - (Hindi + Telugu by sotnikam 3 months 2.07 GB13 3

    Torrent Hash: 044E10FB46CA42B032EF9FE596B6000509F87F57


    Num Trackers: 6 trackers




    TRACKER'S LIST COMPATIBLE WITH BITTORRENT CLIENT


    TrackerSeedersLeechersCompletedUpdated
    udp://tracker.coppersurfer.tk:6969 0 0 0 1 month
    http://open.acgtracker.com:1096/announce 0 0 0 1 month
    http://sugoi.pomf.se/announce 2 15 0 1 month
    http://bt2.archive.org:6969/announce 2 0 0 1 month
    http://tracker.pomf.se/announce 3 25 0 1 month
    http://bt1.archive.org:6969/announce 2 0 0 1 month

    No comments yet.